  0
SECTION
  2
HEADER
  9
$ACADVER
  1
AC1009
  9
$INSBASE
 10
0.0
 20
0.0
 30
0.0
  9
$EXTMIN
 10
-233.68098348221201
 20
3572.0644821705209
 30
0.0
  9
$EXTMAX
 10
418.77866724773969
 20
4510.0042984638676
 30
0.0
  9
$LIMMIN
 10
0.0
 20
0.0
  9
$LIMMAX
 10
12.0
 20
9.0
  9
$ORTHOMODE
 70
     1
  9
$REGENMODE
 70
     1
  9
$FILLMODE
 70
     1
  9
$QTEXTMODE
 70
     0
  9
$MIRRTEXT
 70
     1
  9
$DRAGMODE
 70
     2
  9
$LTSCALE
 40
50.799999999999997
  9
$OSMODE
 70
   439
  9
$ATTMODE
 70
     1
  9
$TEXTSIZE
 40
0.2
  9
$TRACEWID
 40
1.0
  9
$TEXTSTYLE
  7
STANDARD
  9
$CLAYER
  8
10_ZEICHNUNG-WERKZEICHNUNG
  9
$CELTYPE
  6
BYLAYER
  9
$CECOLOR
 62
   256
  9
$DIMSCALE
 40
1.0
  9
$DIMASZ
 40
14.138671875
  9
$DIMEXO
 40
30.0
  9
$DIMDLI
 40
10.16
  9
$DIMRND
 40
0.0
  9
$DIMDLE
 40
20.0
  9
$DIMEXE
 40
20.0
  9
$DIMTP
 40
0.0
  9
$DIMTM
 40
0.0
  9
$DIMTXT
 40
35.36964699074074
  9
$DIMCEN
 40
0.0
  9
$DIMTSZ
 40
0.0
  9
$DIMTOL
 70
     0
  9
$DIMLIM
 70
     0
  9
$DIMTIH
 70
     0
  9
$DIMTOH
 70
     0
  9
$DIMSE1
 70
     0
  9
$DIMSE2
 70
     0
  9
$DIMTAD
 70
     1
  9
$DIMZIN
 70
     8
  9
$DIMBLK
  1
VW_SLASH
  9
$DIMASO
 70
     1
  9
$DIMSHO
 70
     1
  9
$DIMPOST
  1
<>
  9
$DIMAPOST
  1
[]mm
  9
$DIMALT
 70
     0
  9
$DIMALTD
 70
     1
  9
$DIMALTF
 40
1.0
  9
$DIMLFAC
 40
1.0
  9
$DIMTOFL
 70
     1
  9
$DIMTVP
 40
0.0
  9
$DIMTIX
 70
     1
  9
$DIMSOXD
 70
     0
  9
$DIMSAH
 70
     0
  9
$DIMBLK1
  1
VW_SLASH
  9
$DIMBLK2
  1
VW_SLASH
  9
$DIMSTYLE
  2
SCHREINERHLVAR_1_10
  9
$DIMCLRD
 70
     0
  9
$DIMCLRE
 70
     0
  9
$DIMCLRT
 70
     0
  9
$DIMTFAC
 40
0.8
  9
$DIMGAP
 40
0.5
  9
$LUNITS
 70
     2
  9
$LUPREC
 70
     4
  9
$SKETCHINC
 40
0.1
  9
$FILLETRAD
 40
0.5
  9
$AUNITS
 70
     0
  9
$AUPREC
 70
     0
  9
$MENU
  1
.
  9
$ELEVATION
 40
0.0
  9
$PELEVATION
 40
0.0
  9
$THICKNESS
 40
0.0
  9
$LIMCHECK
 70
     0
  9
$BLIPMODE
 70
     0
  9
$CHAMFERA
 40
0.5
  9
$CHAMFERB
 40
0.5
  9
$SKPOLY
 70
     0
  9
$TDCREATE
 40
2456107.46870213
  9
$TDUPDATE
 40
2456107.632152685
  9
$TDINDWG
 40
0.0039817245
  9
$TDUSRTIMER
 40
0.0039815509
  9
$USRTIMER
 70
     1
  9
$ANGBASE
 50
0.0
  9
$ANGDIR
 70
     0
  9
$PDMODE
 70
     1
  9
$PDSIZE
 40
-2.0
  9
$PLINEWID
 40
0.0
  9
$COORDS
 70
     1
  9
$SPLFRAME
 70
     0
  9
$SPLINETYPE
 70
     6
  9
$SPLINESEGS
 70
     8
  9
$ATTDIA
 70
     0
  9
$ATTREQ
 70
     1
  9
$HANDLING
 70
     1
  9
$HANDSEED
  5
3BE
  9
$SURFTAB1
 70
     6
  9
$SURFTAB2
 70
     6
  9
$SURFTYPE
 70
     6
  9
$SURFU
 70
     6
  9
$SURFV
 70
     6
  9
$UCSNAME
  2

  9
$UCSORG
 10
0.0
 20
0.0
 30
0.0
  9
$UCSXDIR
 10
1.0
 20
0.0
 30
0.0
  9
$UCSYDIR
 10
0.0
 20
1.0
 30
0.0
  9
$PUCSNAME
  2

  9
$PUCSORG
 10
0.0
 20
0.0
 30
0.0
  9
$PUCSXDIR
 10
1.0
 20
0.0
 30
0.0
  9
$PUCSYDIR
 10
0.0
 20
1.0
 30
0.0
  9
$USERI1
 70
     0
  9
$USERI2
 70
     0
  9
$USERI3
 70
     0
  9
$USERI4
 70
     0
  9
$USERI5
 70
     0
  9
$USERR1
 40
0.0
  9
$USERR2
 40
0.0
  9
$USERR3
 40
0.0
  9
$USERR4
 40
0.0
  9
$USERR5
 40
0.0
  9
$WORLDVIEW
 70
     1
  9
$SHADEDGE
 70
     3
  9
$SHADEDIF
 70
    70
  9
$TILEMODE
 70
     1
  9
$MAXACTVP
 70
    64
  9
$PLIMCHECK
 70
     0
  9
$PEXTMIN
 10
1.0000000000000000E+020
 20
1.0000000000000000E+020
 30
1.0000000000000000E+020
  9
$PEXTMAX
 10
-1.0000000000000000E+020
 20
-1.0000000000000000E+020
 30
-1.0000000000000000E+020
  9
$PLIMMIN
 10
-20.0
 20
-7.5
  9
$PLIMMAX
 10
277.0
 20
202.5
  9
$UNITMODE
 70
     0
  9
$VISRETAIN
 70
     1
  9
$PLINEGEN
 70
     0
  9
$PSLTSCALE
 70
     1
  0
ENDSEC
  0
SECTION
  2
TABLES
  0
TABLE
  2
VPORT
 70
     3
  0
VPORT
  2
*ACTIVE
 70
     0
 10
0.0
 20
0.0
 11
1.0
 21
1.0
 12
239.31227441515441
 22
4064.3232550871271
 13
0.0
 23
0.0
 14
0.5
 24
0.5
 15
0.5
 25
0.5
 16
0.0
 26
0.0
 36
1.0
 17
0.0
 27
0.0
 37
0.0
 40
1237.399847594196
 41
1.4302083333333331
 42
2000.0
 43
0.0
 44
0.0
 50
0.0
 51
0.0
 71
     0
 72
   100
 73
     1
 74
     3
 75
     0
 76
     0
 77
     0
 78
     0
  0
ENDTAB
  0
TABLE
  2
LTYPE
 70
    23
  0
LTYPE
  2
CONTINUOUS
 70
     0
  3
Solid line
 72
    65
 73
     0
 40
0.0
  0
LTYPE
  2
OHNE_TITEL-1
 70
     0
  3

 72
    65
 73
     2
 40
0.39368
 49
0.19684
 49
-0.19684
  0
LTYPE
  2
OHNE_TITEL-2
 70
     0
  3

 72
    65
 73
     2
 40
0.590515
 49
0.393675
 49
-0.19684
  0
LTYPE
  2
OHNE_TITEL-3
 70
     0
  3

 72
    65
 73
     2
 40
0.787355
 49
0.590515
 49
-0.19684
  0
LTYPE
  2
OHNE_TITEL-4
 70
     0
  3

 72
    65
 73
     2
 40
1.18103
 49
0.98419
 49
-0.1968399999999999
  0
LTYPE
  2
OHNE_TITEL-5
 70
     0
  3

 72
    65
 73
     2
 40
0.19684
 49
0.069505
 49
-0.127335
  0
LTYPE
  2
OHNE_TITEL-6
 70
     0
  3

 72
    65
 73
     4
 40
1.0537000000000001
 49
0.590515
 49
-0.19684
 49
0.069505
 49
-0.1968400000000001
  0
LTYPE
  2
OHNE_TITEL-7
 70
     0
  3

 72
    65
 73
     6
 40
1.841054999999999
 49
0.590515
 49
-0.19684
 49
0.5905149999999999
 49
-0.1968400000000001
 49
0.069505
 49
-0.1968400000000001
  0
LTYPE
  2
OHNE_TITEL-8
 70
     0
  3

 72
    65
 73
     6
 40
1.3200449999999999
 49
0.590515
 49
-0.19684
 49
0.069505
 49
-0.1968400000000001
 49
0.069505
 49
-0.1968399999999999
  0
LTYPE
  2
OHNE_TITEL-9
 70
     0
  3

 72
    65
 73
     4
 40
2.5589049999999989
 49
1.9683849999999989
 49
-0.1968400000000001
 49
0.1968400000000001
 49
-0.1968400000000001
  0
LTYPE
  2
OHNE_TITEL-10
 70
     0
  3

 72
    65
 73
     6
 40
2.952585
 49
1.9683849999999989
 49
-0.1968400000000001
 49
0.1968400000000001
 49
-0.1968400000000001
 49
0.1968399999999998
 49
-0.1968399999999998
  0
LTYPE
  2
OHNE_TITEL-11
 70
     0
  3

 72
    65
 73
     4
 40
1.5748031496062991
 49
0.7874015748031497
 49
-0.3937007874015748
 49
0.0004999999999999
 49
-0.3932007874015748
  0
LTYPE
  2
OHNE_TITEL-12
 70
     0
  3

 72
    65
 73
     2
 40
0.5905511811023622
 49
0.3937007874015748
 49
-0.1968503937007874
  0
LTYPE
  2
OHNE_TITEL-13
 70
     0
  3

 72
    65
 73
     2
 40
0.375
 49
0.25
 49
-0.125
  0
LTYPE
  2
OHNE_TITEL-14
 70
     0
  3

 72
    65
 73
     4
 40
0.5625
 49
0.375
 49
-0.0625
 49
0.0625
 49
-0.0625
  0
LTYPE
  2
OHNE_TITEL-15
 70
     0
  3

 72
    65
 73
     4
 40
1.0
 49
0.625
 49
-0.125
 49
0.125
 49
-0.125
  0
LTYPE
  2
OHNE_TITEL-16
 70
     0
  3

 72
    65
 73
     6
 40
1.1000000000000001
 49
0.6
 49
-0.15
 49
0.025
 49
-0.15
 49
0.025
 49
-0.15
  0
LTYPE
  2
OHNE_TITEL-17
 70
     0
  3

 72
    65
 73
     4
 40
1.8
 49
1.1999999999999991
 49
-0.1500000000000001
 49
0.3
 49
-0.1499999999999999
  0
LTYPE
  2
OHNE_TITEL-18
 70
     0
  3

 72
    65
 73
     2
 40
3.75
 49
2.5
 49
-1.25
  0
LTYPE
  2
OHNE_TITEL-19
 70
     0
  3

 72
    65
 73
     2
 40
7.381889763779526
 49
4.9212598425196843
 49
-2.460629921259843
  0
LTYPE
  2
ACAD_ISO02W100
 70
     0
  3

 72
    65
 73
     2
 40
2.9527559055118102
 49
2.3622047244094491
 49
-0.5905511811023622
  0
LTYPE
  2
STYLE_21
 70
     0
  3

 72
    65
 73
     2
 40
0.1973503937007874
 49
0.1968503937007874
 49
-0.0005
  0
LTYPE
  2
DASHED
 70
     0
  3

 72
    65
 73
     2
 40
1.1811023622047241
 49
0.7874015748031497
 49
-0.3937007874015748
  0
ENDTAB
  0
TABLE
  2
LAYER
 70
    32
  0
LAYER
  2
0
 70
     0
 62
     7
  6
STYLE_21
  0
LAYER
  2
KEINE
 70
     0
 62
     7
  6
CONTINUOUS
  0
LAYER
  2
BEMAŠUNG
 70
     0
 62
     1
  6
CONTINUOUS
  0
LAYER
  2
DETAIL-AUSF_HRUNG
 70
     0
 62
     7
  6
CONTINUOUS
  0
LAYER
  2
10_ZEICHNUNG-DETAIL
 70
     0
 62
     7
  6
CONTINUOUS
  0
LAYER
  2
10_ZEICHNUNG-GRAUE_LINIE
 70
     0
 62
     8
  6
CONTINUOUS
  0
LAYER
  2
30_BESCHL_GE-HILFSLINIEN
 70
     0
 62
     5
  6
OHNE_TITEL-1
  0
LAYER
  2
30_BESCHL_GE-ZEICHNUNG
 70
     0
 62
     7
  6
CONTINUOUS
  0
LAYER
  2
10_ZEICHNUNG-WERKZEICHNUNG
 70
     0
 62
     7
  6
CONTINUOUS
  0
LAYER
  2
30_BESCHL_GE-NAME
 70
     0
 62
     7
  6
CONTINUOUS
  0
LAYER
  2
30_BESCHL_GE-BEMASSUNG
 70
     0
 62
     1
  6
CONTINUOUS
  0
LAYER
  2
10_ZEICHNUNG-SCHNITTFL_CHE
 70
     0
 62
     7
  6
CONTINUOUS
  0
LAYER
  2
10_ZEICHNUNG-BESCHRIFTUNG
 70
     0
 62
     7
  6
CONTINUOUS
  0
LAYER
  2
50_MATERIAL-GLAS
 70
     0
 62
     7
  6
CONTINUOUS
  0
LAYER
  2
HILFSKONSTRUKTIONEN
 70
     0
 62
     6
  6
OHNE_TITEL-1
  0
LAYER
  2
10_ZEICHNUNG-VERDECKT__GES
 70
     0
 62
     7
  6
OHNE_TITEL-1
  0
LAYER
  2
70_ARCHITEKTUR-W_NDE
 70
     0
 62
     7
  6
CONTINUOUS
  0
LAYER
  2
70_ARCHITEKTUR-BODEN__DECK
 70
     0
 62
     7
  6
CONTINUOUS
  0
LAYER
  2
ATTRIBUTKLASSE-03
 70
     0
 62
     7
  6
CONTINUOUS
  0
LAYER
  2
ATTRIBUTKLASSE-02
 70
     0
 62
     7
  6
CONTINUOUS
  0
LAYER
  2
ATTRIBUTKLASSE-04
 70
     0
 62
     7
  6
CONTINUOUS
  0
LAYER
  2
ATTRIBUTKLASSE-01
 70
     0
 62
     7
  6
CONTINUOUS
  0
LAYER
  2
70_ARCHITEKTUR-GEB_UDELINI
 70
     0
 62
     7
  6
CONTINUOUS
  0
LAYER
  2
CW-UNSICHTBAR
 70
     1
 62
     7
  6
CONTINUOUS
  0
LAYER
  2
10_ZEICHNUNG-SCHNITTACHSEN
 70
     0
 62
     7
  6
OHNE_TITEL-6
  0
LAYER
  2
20_BEMASSUNG-ERG_NZUNGEN
 70
     0
 62
     7
  6
CONTINUOUS
  0
LAYER
  2
BESCHLƒGE-2
 70
     0
 62
   150
  6
CONTINUOUS
  0
LAYER
  2
LINIE_SS
 70
     0
 62
     4
  6
ACAD_ISO02W100
  0
LAYER
  2
SCHIENEN___PROFILE
 70
     0
 62
     1
  6
CONTINUOUS
  0
LAYER
  2
EKU-BESCHLAG
 70
     0
 62
     7
  6
CONTINUOUS
  0
LAYER
  2
10_ZEICHNUNG-HILFSKONSTRUK
 70
     0
 62
     5
  6
OHNE_TITEL-1
  0
LAYER
  2
DEFPOINTS
 70
     0
 62
     7
  6
CONTINUOUS
  0
ENDTAB
  0
TABLE
  2
STYLE
 70
     2
  0
STYLE
  2
STANDARD
 70
     0
 40
0.0
 41
1.0
 50
0.0
 71
     0
 42
0.2
  3
txt
  4

  0
STYLE
  2
ARIAL
 70
     0
 40
0.0
 41
1.0
 50
0.0
 71
     0
 42
0.0
  3
txt
  4

  0
ENDTAB
  0
TABLE
  2
VIEW
 70
     0
  0
ENDTAB
  0
TABLE
  2
UCS
 70
     0
  0
ENDTAB
  0
TABLE
  2
APPID
 70
     1
  0
APPID
  2
ACAD
 70
     0
  0
ENDTAB
  0
TABLE
  2
DIMSTYLE
 70
     2
  0
DIMSTYLE
  2
STANDARD
 70
     0
  3

  4

  5

  6

  7

 40
1.0
 41
0.18
 42
0.0625
 43
0.38
 44
0.18
 45
0.0
 46
0.0
 47
0.0
 48
0.0
140
0.18
141
0.09
142
0.0
143
25.399999999999999
144
1.0
145
0.0
146
1.0
147
0.09
 71
     0
 72
     0
 73
     1
 74
     1
 75
     0
 76
     0
 77
     0
 78
     0
170
     0
171
     2
172
     0
173
     0
174
     0
175
     0
176
     0
177
     0
178
     0
  0
DIMSTYLE
  2
SCHREINERHLVAR_1_10
 70
     0
  3
<>
  4
[]mm
  5
VW_SLASH
  6
VW_SLASH
  7
VW_SLASH
 40
1.0
 41
14.138671875
 42
30.0
 43
10.16
 44
20.0
 45
0.0
 46
20.0
 47
0.0
 48
0.0
140
35.36964699074074
141
0.0
142
0.0
143
1.0
144
1.0
145
0.0
146
0.8
147
0.5
 71
     0
 72
     0
 73
     0
 74
     0
 75
     0
 76
     0
 77
     1
 78
     8
170
     0
171
     1
172
     1
173
     0
174
     1
175
     0
176
     0
177
     0
178
     0
  0
ENDTAB
  0
ENDSEC
  0
SECTION
  2
BLOCKS
  0
BLOCK
  8
0
  2
$MODEL_SPACE
 70
     0
 10
0.0
 20
0.0
 30
0.0
  3
$MODEL_SPACE
  1

  0
ENDBLK
  5
21
  8
0
  0
BLOCK
 67
     1
  8
0
  2
$PAPER_SPACE
 70
     0
 10
0.0
 20
0.0
 30
0.0
  3
$PAPER_SPACE
  1

  0
ENDBLK
  5
1D
 67
     1
  8
0
  0
BLOCK
  8
0
  2
GRUPPE-1
 70
     0
 10
0.0
 20
0.0
 30
0.0
  3
GRUPPE-1
  1

  0
LINE
  5
A6
  8
10_ZEICHNUNG-WERKZEICHNUNG
  6
CONTINUOUS
 62
     7
 10
-202.39985919611709
 20
3595.516446721304
 30
0.0
 11
-202.39985919606141
 21
3595.5164467213021
 31
0.0
  0
POLYLINE
  5
A7
  8
10_ZEICHNUNG-WERKZEICHNUNG
  6
CONTINUOUS
 62
     7
 66
     1
 10
0.0
 20
0.0
 30
0.0
 70
   128
  0
VERTEX
  5
A8
  8
10_ZEICHNUNG-WERKZEICHNUNG
  6
CONTINUOUS
 62
     7
 10
-67.999999999997954
 20
3588.8771540311791
 30
0.0
  0
VERTEX
  5
A9
  8
10_ZEICHNUNG-WERKZEICHNUNG
  6
CONTINUOUS
 62
     7
 10
-70.10026412011824
 20
3588.911576802981
 30
0.0
  0
VERTEX
  5
AA
  8
10_ZEICHNUNG-WERKZEICHNUNG
  6
CONTINUOUS
 62
     7
 10
-72.200524532479221
 20
3588.9482002469549
 30
0.0
  0
VERTEX
  5
AB
  8
10_ZEICHNUNG-WERKZEICHNUNG
  6
CONTINUOUS
 62
     7
 10
-74.300781007380451
 20
3588.9870243590881
 30
0.0
  0
VERTEX
  5
AC
  8
10_ZEICHNUNG-WERKZEICHNUNG
  6
CONTINUOUS
 62
     7
 10
-76.401033315122277
 20
3589.02804913514
 30
0.0
  0
VERTEX
  5
AD
  8
10_ZEICHNUNG-WERKZEICHNUNG
  6
CONTINUOUS
 62
     7
 10
-78.501281226014427
 20
3589.0712745706219
 30
0.0
  0
VERTEX
  5
AE
  8
10_ZEICHNUNG-WERKZEICHNUNG
  6
CONTINUOUS
 62
     7
 10
-80.601524510357805
 20
3589.1167006608039
 30
0.0
  0
VERTEX
  5
AF
  8
10_ZEICHNUNG-WERKZEICHNUNG
  6
CONTINUOUS
 62
     7
 10
-82.701762938453655
 20
3589.164327400722
 30
0.0
  0
VERTEX
  5
B0
  8
10_ZEICHNUNG-WERKZEICHNUNG
  6
CONTINUOUS
 62
     7
 10
-84.801996280613764
 20
3589.2141547851629
 30
0.0
  0
VERTEX
  5
B1
  8
10_ZEICHNUNG-WERKZEICHNUNG
  6
CONTINUOUS
 62
     7
 10
-86.90222430714033
 20
3589.2661828086798
 30
0.0
  0
VERTEX
  5
B2
  8
10_ZEICHNUNG-WERKZEICHNUNG
  6
CONTINUOUS
 62
     7
 10
-89.002446788336599
 20
3589.320411465585
 30
0.0
  0
VERTEX
  5
B3
  8
10_ZEICHNUNG-WERKZEICHNUNG
  6
CONTINUOUS
 62
     7
 10
-91.102663494515767
 20
3589.3768407499442
 30
0.0
  0
VERTEX
  5
B4
  8
10_ZEICHNUNG-WERKZEICHNUNG
  6
CONTINUOUS
 62
     7
 10
-93.202874195981906
 20
3589.4354706555869
 30
0.0
  0
VERTEX
  5
B5
  8
10_ZEICHNUNG-WERKZEICHNUNG
  6
CONTINUOUS
 62
     7
 10
-95.303078663040466
 20
3589.4963011760979
 30
0.0
  0
VERTEX
  5
B6
  8
10_ZEICHNUNG-WERKZEICHNUNG
  6
CONTINUOUS
 62
     7
 10
-97.403276666005993
 20
3589.559332304832
 30
0.0
  0
VERTEX
  5
B7
  8
10_ZEICHNUNG-WERKZEICHNUNG
  6
CONTINUOUS
 62
     7
 10
-99.503467975185416
 20
3589.6245640348889
 30
0.0
  0
VERTEX
  5
B8
  8
10_ZEICHNUNG-WERKZEICHNUNG
  6
CONTINUOUS
 62
     7
 10
-101.6036523608855
 20
3589.691996359134
 30
0.0
  0
VERTEX
  5
B9
  8
10_ZEICHNUNG-WERKZEICHNUNG
  6
CONTINUOUS
 62
     7
 10
-103.70382959342049
 20
3589.761629270201
 30
0.0
  0
VERTEX
  5
BA
  8
10_ZEICHNUNG-WERKZEICHNUNG
  6
CONTINUOUS
 62
     7
 10
-105.8039994431054
 20
3589.833462760464
 30
0.0
  0
VERTEX
  5
BB
  8
10_ZEICHNUNG-WERKZEICHNUNG
  6
CONTINUOUS
 62
     7
 10
-107.9041616802497
 20
3589.9074968220771
 30
0.0
  0
VERTEX
  5
BC
  8
10_ZEICHNUNG-WERKZEICHNUNG
  6
CONTINUOUS
 62
     7
 10
-110.0043160751636
 20
3589.983731446931
 30
0.0
  0
VERTEX
  5
BD
  8
10_ZEICHNUNG-WERKZEICHNUNG
  6
CONTINUOUS
 62
     7
 10
-112.1044623981679
 20
3590.0621666266961
 30
0.0
  0
VERTEX
  5
BE
  8
10_ZEICHNUNG-WERKZEICHNUNG
  6
CONTINUOUS
 62
     7
 10
-114.20460041957411
 20
3590.1428023527978
 30
0.0
  0
VERTEX
  5
BF
  8
10_ZEICHNUNG-WERKZEICHNUNG
  6
CONTINUOUS
 62
     7
 10
-116.30472990969569
 20
3590.2256386164099
 30
0.0
  0
VERTEX
  5
C0
  8
10_ZEICHNUNG-WERKZEICHNUNG
  6
CONTINUOUS
 62
     7
 10
-118.404850638856
 20
3590.3106754084761
 30
0.0
  0
VERTEX
  5
C1
  8
10_ZEICHNUNG-WERKZEICHNUNG
  6
CONTINUOUS
 62
     7
 10
-120.5049623773694
 20
3590.3979127196958
 30
0.0
  0
VERTEX
  5
C2
  8
10_ZEICHNUNG-WERKZEICHNUNG
  6
CONTINUOUS
 62
     7
 10
-122.605064895552
 20
3590.4873505405299
 30
0.0
  0
VERTEX
  5
C3
  8
10_ZEICHNUNG-WERKZEICHNUNG
  6
CONTINUOUS
 62
     7
 10
-124.7051579637302
 20
3590.5789888611962
 30
0.0
  0
VERTEX
  5
C4
  8
10_ZEICHNUNG-WERKZEICHNUNG
  6
CONTINUOUS
 62
     7
 10
-126.8052413522215
 20
3590.6728276716672
 30
0.0
  0
VERTEX
  5
C5
  8
10_ZEICHNUNG-WERKZEICHNUNG
  6
CONTINUOUS
 62
     7
 10
-128.90531483134529
 20
3590.7688669616869
 30
0.0
  0
VERTEX
  5
C6
  8
10_ZEICHNUNG-WERKZEICHNUNG
  6
CONTINUOUS
 62
     7
 10
-131.00537817143061
 20
3590.867106720752
 30
0.0
  0
VERTEX
  5
C7
  8
10_ZEICHNUNG-WERKZEICHNUNG
  6
CONTINUOUS
 62
     7
 10
-133.10543114279861
 20
3590.9675469381132
 30
0.0
  0
VERTEX
  5
C8
  8
10_ZEICHNUNG-WERKZEICHNUNG
  6
CONTINUOUS
 62
     7
 10
-135.20547351577159
 20
3591.0701876027888
 30
0.0
  0
VERTEX
  5
C9
  8
10_ZEICHNUNG-WERKZEICHNUNG
  6
CONTINUOUS
 62
     7
 10
-137.30550506067951
 20
3591.1750287035529
 30
0.0
  0
VERTEX
  5
CA
  8
10_ZEICHNUNG-WERKZEICHNUNG
  6
CONTINUOUS
 62
     7
 10
-139.4055255478529
 20
3591.28207022894
 30
0.0
  0
VERTEX
  5
CB
  8
10_ZEICHNUNG-WERKZEICHNUNG
  6
CONTINUOUS
 62
     7
 10
-141.50553474761759
 20
3591.3913121672449
 30
0.0
  0
VERTEX
  5
CC
  8
10_ZEICHNUNG-WERKZEICHNUNG
  6
CONTINUOUS
 62
     7
 10
-143.6055324303008
 20
3591.5027545065168
 30
0.0
  0
VERTEX
  5
CD
  8
10_ZEICHNUNG-WERKZEICHNUNG
  6
CONTINUOUS
 62
     7
 10
-145.70551836624031
 20
3591.6163972345689
 30
0.0
  0
VERTEX
  5
CE
  8
10_ZEICHNUNG-WERKZEICHNUNG
  6
CONTINUOUS
 62
     7
 10
-147.80549232576541
 20
3591.732240338973
 30
0.0
  0
VERTEX
  5
CF
  8
10_ZEICHNUNG-WERKZEICHNUNG
  6
CONTINUOUS
 62
     7
 10
-149.90545407920709
 20
3591.8502838070622
 30
0.0
  0
VERTEX
  5
D0
  8
10_ZEICHNUNG-WERKZEICHNUNG
  6
CONTINUOUS
 62
     7
 10
-152.00540339690721
 20
3591.970527625921
 30
0.0
  0
VERTEX
  5
D1
  8
10_ZEICHNUNG-WERKZEICHNUNG
  6
CONTINUOUS
 62
     7
 10
-154.10534004919899
 20
3592.092971782401
 30
0.0
  0
VERTEX
  5
D2
  8
10_ZEICHNUNG-WERKZEICHNUNG
  6
CONTINUOUS
 62
     7
 10
-156.20526380641769
 20
3592.2176162631131
 30
0.0
  0
VERTEX
  5
D3
  8
10_ZEICHNUNG-WERKZEICHNUNG
  6
CONTINUOUS
 62
     7
 10
-158.30517443890901
 20
3592.3444610544252
 30
0.0
  0
VERTEX
  5
D4
  8
10_ZEICHNUNG-WERKZEICHNUNG
  6
CONTINUOUS
 62
     7
 10
-160.4050717170108
 20
3592.4735061424658
 30
0.0
  0
VERTEX
  5
D5
  8
10_ZEICHNUNG-WERKZEICHNUNG
  6
CONTINUOUS
 62
     7
 10
-162.50495541106221
 20
3592.6047515131149
 30
0.0
  0
VERTEX
  5
D6
  8
10_ZEICHNUNG-WERKZEICHNUNG
  6
CONTINUOUS
 62
     7
 10
-164.60482529141379
 20
3592.738197152029
 30
0.0
  0
VERTEX
  5
D7
  8
10_ZEICHNUNG-WERKZEICHNUNG
  6
CONTINUOUS
 62
     7
 10
-166.70468112840729
 20
3592.8738430446019
 30
0.0
  0
VERTEX
  5
D8
  8
10_ZEICHNUNG-WERKZEICHNUNG
  6
CONTINUOUS
 62
     7
 10
-168.80452269238691
 20
3593.0116891760072
 30
0.0
  0
VERTEX
  5
D9
  8
10_ZEICHNUNG-WERKZEICHNUNG
  6
CONTINUOUS
 62
     7
 10
-170.90434975370431
 20
3593.1517355311689
 30
0.0
  0
VERTEX
  5
DA
  8
10_ZEICHNUNG-WERKZEICHNUNG
  6
CONTINUOUS
 62
     7
 10
-173.0041620827125
 20
3593.2939820947699
 30
0.0
  0
VERTEX
  5
DB
  8
10_ZEICHNUNG-WERKZEICHNUNG
  6
CONTINUOUS
 62
     7
 10
-175.10395944976011
 20
3593.4384288512451
 30
0.0
  0
VERTEX
  5
DC
  8
10_ZEICHNUNG-WERKZEICHNUNG
  6
CONTINUOUS
 62
     7
 10
-177.20374162519741
 20
3593.5850757848079
 30
0.0
  0
VERTEX
  5
DD
  8
10_ZEICHNUNG-WERKZEICHNUNG
  6
CONTINUOUS
 62
     7
 10
-179.3035083793857
 20
3593.7339228794181
 30
0.0
  0
VERTEX
  5
DE
  8
10_ZEICHNUNG-WERKZEICHNUNG
  6
CONTINUOUS
 62
     7
 10
-181.40325948267841
 20
3593.8849701187919
 30
0.0
  0
VERTEX
  5
DF
  8
10_ZEICHNUNG-WERKZEICHNUNG
  6
CONTINUOUS
 62
     7
 10
-183.50299470543101
 20
3594.0382174864139
 30
0.0
  0
VERTEX
  5
E0
  8
10_ZEICHNUNG-WERKZEICHNUNG
  6
CONTINUOUS
 62
     7
 10
-185.60271381800959
 20
3594.1936649655222
 30
0.0
  0
VERTEX
  5
E1
  8
10_ZEICHNUNG-WERKZEICHNUNG
  6
CONTINUOUS
 62
     7
 10
-187.70241659077351
 20
3594.351312539115
 30
0.0
  0
VERTEX
  5
E2
  8
10_ZEICHNUNG-WERKZEICHNUNG
  6
CONTINUOUS
 62
     7
 10
-189.80210279408271
 20
3594.5111601899512
 30
0.0
  0
VERTEX
  5
E3
  8
10_ZEICHNUNG-WERKZEICHNUNG
  6
CONTINUOUS
 62
     7
 10
-191.90177219830909
 20
3594.6732079005578
 30
0.0
  0
VERTEX
  5
E4
  8
10_ZEICHNUNG-WERKZEICHNUNG
  6
CONTINUOUS
 62
     7
 10
-194.0014245738171
 20
3594.837455653198
 30
0.0
  0
VERTEX
  5
E5
  8
10_ZEICHNUNG-WERKZEICHNUNG
  6
CONTINUOUS
 62
     7
 10
-196.1010596909727
 20
3595.0039034299211
 30
0.0
  0
VERTEX
  5
E6
  8
10_ZEICHNUNG-WERKZEICHNUNG
  6
CONTINUOUS
 62
     7
 10
-198.20067732015309
 20
3595.1725512125122
 30
0.0
  0
VERTEX
  5
E7
  8
10_ZEICHNUNG-WERKZEICHNUNG
  6
CONTINUOUS
 62
     7
 10
-200.30027723172839
 20
3595.3433989825321
 30
0.0
  0
VERTEX
  5
E8
  8
10_ZEICHNUNG-WERKZEICHNUNG
  6
CONTINUOUS
 62
     7
 10
-202.39985919606141
 20
3595.5164467213021
 30
0.0
  0
SEQEND
  5
E9
  8
10_ZEICHNUNG-WERKZEICHNUNG
  6
CONTINUOUS
 62
     7
  0
ENDBLK
  5
41
  8
0
  0
BLOCK
  8
0
  2
GRUPPE-2-1
 70
     0
 10
0.0
 20
0.0
 30
0.0
  3
GRUPPE-2-1
  1

  0
POLYLINE
  5
EA
  8
10_ZEICHNUNG-WERKZEICHNUNG
  6
CONTINUOUS
 62
     7
 66
     1
 10
0.0
 20
0.0
 30
0.0
 70
   128
  0
VERTEX
  5
EB
  8
10_ZEICHNUNG-WERKZEICHNUNG
  6
CONTINUOUS
 62
     7
 10
44.000000000002053
 20
3588.8771540311791
 30
0.0
  0
VERTEX
  5
EC
  8
10_ZEICHNUNG-WERKZEICHNUNG
  6
CONTINUOUS
 62
     7
 10
46.10026412012256
 20
3588.911576802981
 30
0.0
  0
VERTEX
  5
ED
  8
10_ZEICHNUNG-WERKZEICHNUNG
  6
CONTINUOUS
 62
     7
 10
48.200524532483307
 20
3588.9482002469549
 30
0.0
  0
VERTEX
  5
EE
  8
10_ZEICHNUNG-WERKZEICHNUNG
  6
CONTINUOUS
 62
     7
 10
50.300781007384778
 20
3588.9870243590881
 30
0.0
  0
VERTEX
  5
EF
  8
10_ZEICHNUNG-WERKZEICHNUNG
  6
CONTINUOUS
 62
     7
 10
52.401033315126369
 20
3589.02804913514
 30
0.0
  0
VERTEX
  5
F0
  8
10_ZEICHNUNG-WERKZEICHNUNG
  6
CONTINUOUS
 62
     7
 10
54.501281226018357
 20
3589.0712745706219
 30
0.0
  0
VERTEX
  5
F1
  8
10_ZEICHNUNG-WERKZEICHNUNG
  6
CONTINUOUS
 62
     7
 10
56.601524510362196
 20
3589.1167006608039
 30
0.0
  0
VERTEX
  5
F2
  8
10_ZEICHNUNG-WERKZEICHNUNG
  6
CONTINUOUS
 62
     7
 10
58.701762938457691
 20
3589.164327400722
 30
0.0
  0
VERTEX
  5
F3
  8
10_ZEICHNUNG-WERKZEICHNUNG
  6
CONTINUOUS
 62
     7
 10
60.801996280617907
 20
3589.2141547851629
 30
0.0
  0
VERTEX
  5
F4
  8
10_ZEICHNUNG-WERKZEICHNUNG
  6
CONTINUOUS
 62
     7
 10
62.902224307144479
 20
3589.2661828086798
 30
0.0
  0
VERTEX
  5
F5
  8
10_ZEICHNUNG-WERKZEICHNUNG
  6
CONTINUOUS
 62
     7
 10
65.002446788340634
 20
3589.320411465585
 30
0.0
  0
VERTEX
  5
F6
  8
10_ZEICHNUNG-WERKZEICHNUNG
  6
CONTINUOUS
 62
     7
 10
67.102663494519902
 20
3589.3768407499442
 30
0.0
  0
VERTEX
  5
F7
  8
10_ZEICHNUNG-WERKZEICHNUNG
  6
CONTINUOUS
 62
     7
 10
69.202874195986169
 20
3589.4354706555869
 30
0.0
  0
VERTEX
  5
F8
  8
10_ZEICHNUNG-WERKZEICHNUNG
  6
CONTINUOUS
 62
     7
 10
71.303078663044516
 20
3589.4963011760979
 30
0.0
  0
VERTEX
  5
F9
  8
10_ZEICHNUNG-WERKZEICHNUNG
  6
CONTINUOUS
 62
     7
 10
73.403276666010015
 20
3589.559332304832
 30
0.0
  0
VERTEX
  5
FA
  8
10_ZEICHNUNG-WERKZEICHNUNG
  6
CONTINUOUS
 62
     7
 10
75.503467975189309
 20
3589.6245640348889
 30
0.0
  0
VERTEX
  5
FB
  8
10_ZEICHNUNG-WERKZEICHNUNG
  6
CONTINUOUS
 62
     7
 10
77.603652360889555
 20
3589.691996359134
 30
0.0
  0
VERTEX
  5
FC
  8
10_ZEICHNUNG-WERKZEICHNUNG
  6
CONTINUOUS
 62
     7
 10
79.703829593424871
 20
3589.761629270201
 30
0.0
  0
VERTEX
  5
FD
  8
10_ZEICHNUNG-WERKZEICHNUNG
  6
CONTINUOUS
 62
     7
 10
81.803999443109433
 20
3589.833462760464
 30
0.0
  0
VERTEX
  5
FE
  8
10_ZEICHNUNG-WERKZEICHNUNG
  6
CONTINUOUS
 62
     7
 10
83.904161680253765
 20
3589.9074968220771
 30
0.0
  0
VERTEX
  5
FF
  8
10_ZEICHNUNG-WERKZEICHNUNG
  6
CONTINUOUS
 62
     7
 10
86.004316075167935
 20
3589.983731446931
 30
0.0
  0
VERTEX
  5
100
  8
10_ZEICHNUNG-WERKZEICHNUNG
  6
CONTINUOUS
 62
     7
 10
88.104462398172004
 20
3590.0621666266961
 30
0.0
  0
VERTEX
  5
101
  8
10_ZEICHNUNG-WERKZEICHNUNG
  6
CONTINUOUS
 62
     7
 10
90.204600419578128
 20
3590.1428023527978
 30
0.0
  0
VERTEX
  5
102
  8
10_ZEICHNUNG-WERKZEICHNUNG
  6
CONTINUOUS
 62
     7
 10
92.304729909699958
 20
3590.2256386164099
 30
0.0
  0
VERTEX
  5
103
  8
10_ZEICHNUNG-WERKZEICHNUNG
  6
CONTINUOUS
 62
     7
 10
94.404850638860125
 20
3590.3106754084761
 30
0.0
  0
VERTEX
  5
104
  8
10_ZEICHNUNG-WERKZEICHNUNG
  6
CONTINUOUS
 62
     7
 10
96.504962377373658
 20
3590.3979127196958
 30
0.0
  0
VERTEX
  5
105
  8
10_ZEICHNUNG-WERKZEICHNUNG
  6
CONTINUOUS
 62
     7
 10
98.605064895556083
 20
3590.4873505405299
 30
0.0
  0
VERTEX
  5
106
  8
10_ZEICHNUNG-WERKZEICHNUNG
  6
CONTINUOUS
 62
     7
 10
100.70515796373429
 20
3590.5789888611962
 30
0.0
  0
VERTEX
  5
107
  8
10_ZEICHNUNG-WERKZEICHNUNG
  6
CONTINUOUS
 62
     7
 10
102.80524135222571
 20
3590.6728276716672
 30
0.0
  0
VERTEX
  5
108
  8
10_ZEICHNUNG-WERKZEICHNUNG
  6
CONTINUOUS
 62
     7
 10
104.9053148313492
 20
3590.7688669616869
 30
0.0
  0
VERTEX
  5
109
  8
10_ZEICHNUNG-WERKZEICHNUNG
  6
CONTINUOUS
 62
     7
 10
107.0053781714348
 20
3590.867106720752
 30
0.0
  0
VERTEX
  5
10A
  8
10_ZEICHNUNG-WERKZEICHNUNG
  6
CONTINUOUS
 62
     7
 10
109.1054311428027
 20
3590.9675469381132
 30
0.0
  0
VERTEX
  5
10B
  8
10_ZEICHNUNG-WERKZEICHNUNG
  6
CONTINUOUS
 62
     7
 10
111.20547351577601
 20
3591.0701876027888
 30
0.0
  0
VERTEX
  5
10C
  8
10_ZEICHNUNG-WERKZEICHNUNG
  6
CONTINUOUS
 62
     7
 10
113.3055050606838
 20
3591.1750287035529
 30
0.0
  0
VERTEX
  5
10D
  8
10_ZEICHNUNG-WERKZEICHNUNG
  6
CONTINUOUS
 62
     7
 10
115.4055255478572
 20
3591.28207022894
 30
0.0
  0
VERTEX
  5
10E
  8
10_ZEICHNUNG-WERKZEICHNUNG
  6
CONTINUOUS
 62
     7
 10
117.50553474762179
 20
3591.3913121672449
 30
0.0
  0
VERTEX
  5
10F
  8
10_ZEICHNUNG-WERKZEICHNUNG
  6
CONTINUOUS
 62
     7
 10
119.60553243030471
 20
3591.5027545065168
 30
0.0
  0
VERTEX
  5
110
  8
10_ZEICHNUNG-WERKZEICHNUNG
  6
CONTINUOUS
 62
     7
 10
121.7055183662446
 20
3591.6163972345689
 30
0.0
  0
VERTEX
  5
111
  8
10_ZEICHNUNG-WERKZEICHNUNG
  6
CONTINUOUS
 62
     7
 10
123.80549232576981
 20
3591.732240338973
 30
0.0
  0
VERTEX
  5
112
  8
10_ZEICHNUNG-WERKZEICHNUNG
  6
CONTINUOUS
 62
     7
 10
125.9054540792113
 20
3591.8502838070622
 30
0.0
  0
VERTEX
  5
113
  8
10_ZEICHNUNG-WERKZEICHNUNG
  6
CONTINUOUS
 62
     7
 10
128.00540339691159
 20
3591.970527625921
 30
0.0
  0
VERTEX
  5
114
  8
10_ZEICHNUNG-WERKZEICHNUNG
  6
CONTINUOUS
 62
     7
 10
130.10534004920311
 20
3592.092971782401
 30
0.0
  0
VERTEX
  5
115
  8
10_ZEICHNUNG-WERKZEICHNUNG
  6
CONTINUOUS
 62
     7
 10
132.2052638064217
 20
3592.2176162631131
 30
0.0
  0
VERTEX
  5
116
  8
10_ZEICHNUNG-WERKZEICHNUNG
  6
CONTINUOUS
 62
     7
 10
134.3051744389129
 20
3592.3444610544252
 30
0.0
  0
VERTEX
  5
117
  8
10_ZEICHNUNG-WERKZEICHNUNG
  6
CONTINUOUS
 62
     7
 10
136.40507171701469
 20
3592.4735061424658
 30
0.0
  0
VERTEX
  5
118
  8
10_ZEICHNUNG-WERKZEICHNUNG
  6
CONTINUOUS
 62
     7
 10
138.5049554110667
 20
3592.6047515131149
 30
0.0
  0
VERTEX
  5
119
  8
10_ZEICHNUNG-WERKZEICHNUNG
  6
CONTINUOUS
 62
     7
 10
140.60482529141771
 20
3592.738197152029
 30
0.0
  0
VERTEX
  5
11A
  8
10_ZEICHNUNG-WERKZEICHNUNG
  6
CONTINUOUS
 62
     7
 10
142.70468112841149
 20
3592.8738430446019
 30
0.0
  0
VERTEX
  5
11B
  8
10_ZEICHNUNG-WERKZEICHNUNG
  6
CONTINUOUS
 62
     7
 10
144.80452269239109
 20
3593.0116891760072
 30
0.0
  0
VERTEX
  5
11C
  8
10_ZEICHNUNG-WERKZEICHNUNG
  6
CONTINUOUS
 62
     7
 10
146.9043497537086
 20
3593.1517355311689
 30
0.0
  0
VERTEX
  5
11D
  8
10_ZEICHNUNG-WERKZEICHNUNG
  6
CONTINUOUS
 62
     7
 10
149.0041620827167
 20
3593.2939820947699
 30
0.0
  0
VERTEX
  5
11E
  8
10_ZEICHNUNG-WERKZEICHNUNG
  6
CONTINUOUS
 62
     7
 10
151.10395944976429
 20
3593.4384288512451
 30
0.0
  0
VERTEX
  5
11F
  8
10_ZEICHNUNG-WERKZEICHNUNG
  6
CONTINUOUS
 62
     7
 10
153.2037416252015
 20
3593.5850757848079
 30
0.0
  0
VERTEX
  5
120
  8
10_ZEICHNUNG-WERKZEICHNUNG
  6
CONTINUOUS
 62
     7
 10
155.30350837938951
 20
3593.7339228794181
 30
0.0
  0
VERTEX
  5
121
  8
10_ZEICHNUNG-WERKZEICHNUNG
  6
CONTINUOUS
 62
     7
 10
157.40325948268261
 20
3593.8849701187919
 30
0.0
  0
VERTEX
  5
122
  8
10_ZEICHNUNG-WERKZEICHNUNG
  6
CONTINUOUS
 62
     7
 10
159.5029947054347
 20
3594.0382174864139
 30
0.0
  0
VERTEX
  5
123
  8
10_ZEICHNUNG-WERKZEICHNUNG
  6
CONTINUOUS
 62
     7
 10
161.60271381801391
 20
3594.1936649655222
 30
0.0
  0
VERTEX
  5
124
  8
10_ZEICHNUNG-WERKZEICHNUNG
  6
CONTINUOUS
 62
     7
 10
163.70241659077749
 20
3594.351312539115
 30
0.0
  0
VERTEX
  5
125
  8
10_ZEICHNUNG-WERKZEICHNUNG
  6
CONTINUOUS
 62
     7
 10
165.80210279408669
 20
3594.5111601899512
 30
0.0
  0
VERTEX
  5
126
  8
10_ZEICHNUNG-WERKZEICHNUNG
  6
CONTINUOUS
 62
     7
 10
167.90177219831301
 20
3594.6732079005578
 30
0.0
  0
VERTEX
  5
127
  8
10_ZEICHNUNG-WERKZEICHNUNG
  6
CONTINUOUS
 62
     7
 10
170.00142457382111
 20
3594.837455653198
 30
0.0
  0
VERTEX
  5
128
  8
10_ZEICHNUNG-WERKZEICHNUNG
  6
CONTINUOUS
 62
     7
 10
172.10105969097691
 20
3595.0039034299211
 30
0.0
  0
VERTEX
  5
129
  8
10_ZEICHNUNG-WERKZEICHNUNG
  6
CONTINUOUS
 62
     7
 10
174.2006773201573
 20
3595.1725512125122
 30
0.0
  0
VERTEX
  5
12A
  8
10_ZEICHNUNG-WERKZEICHNUNG
  6
CONTINUOUS
 62
     7
 10
176.30027723173251
 20
3595.3433989825321
 30
0.0
  0
VERTEX
  5
12B
  8
10_ZEICHNUNG-WERKZEICHNUNG
  6
CONTINUOUS
 62
     7
 10
178.39985919606531
 20
3595.5164467213021
 30
0.0
  0
SEQEND
  5
12C
  8
10_ZEICHNUNG-WERKZEICHNUNG
  6
CONTINUOUS
 62
     7
  0
ENDBLK
  5
44
  8
0
  0
BLOCK
  8
0
  2
*D2
 70
     1
 10
0.0
 20
0.0
 30
0.0
  3
*D2
  1

  0
LINE
  5
35F
  8
BEMAŠUNG
  6
CONTINUOUS
 62
     0
 10
188.00000000000199
 20
4314.9623000885331
 30
0.0
 11
188.00000000000199
 21
4405.1940565547839
 31
0.0
  0
LINE
  5
360
  8
BEMAŠUNG
  6
CONTINUOUS
 62
     0
 10
-211.9999999999979
 20
4314.9623000885331
 30
0.0
 11
-211.9999999999979
 21
4405.1940565547839
 31
0.0
  0
LINE
  5
361
  8
BEMAŠUNG
  6
CONTINUOUS
 62
     0
 10
173.86132812500199
 20
4385.1940565547848
 30
0.0
 11
-197.8613281249979
 21
4385.1940565547848
 31
0.0
  0
INSERT
  5
362
  8
BEMAŠUNG
  6
CONTINUOUS
 62
     0
  2
VW_SLASH
 10
188.00000000000199
 20
4385.1940565547848
 30
0.0
 41
14.138671875
 42
14.138671875
 43
14.138671875
  0
INSERT
  5
363
  8
BEMAŠUNG
  6
CONTINUOUS
 62
     0
  2
VW_SLASH
 10
-211.9999999999979
 20
4385.1940565547848
 30
0.0
 41
14.138671875
 42
14.138671875
 43
14.138671875
 50
180.0
  0
TEXT
  8
BEMAŠUNG
  40
35.3696
  5
3B6
  62
0
  72
0
  71
0
 10
-82.7393
 20
4343.15
 30
0.000000
  1
400
  7
ARIAL
  0
POINT
  5
365
  8
DEFPOINTS
  6
CONTINUOUS
 62
     0
 10
188.00000000000199
 20
4284.9623000885322
 30
0.0
  0
POINT
  5
366
  8
DEFPOINTS
  6
CONTINUOUS
 62
     0
 10
-211.9999999999979
 20
4284.9623000885322
 30
0.0
  0
POINT
  5
367
  8
DEFPOINTS
  6
CONTINUOUS
 62
     0
 10
-211.9999999999979
 20
4385.1940565547848
 30
0.0
  0
ENDBLK
  5
47
  8
0
  0
BLOCK
  8
0
  2
*D3
 70
     1
 10
0.0
 20
0.0
 30
0.0
  3
*D3
  1

  0
LINE
  5
368
  8
BEMAŠUNG
  6
CONTINUOUS
 62
     0
 10
199.99999999999329
 20
4281.9687588494398
 30
0.0
 11
199.99999999999329
 21
4482.7027777777766
 31
0.0
  0
LINE
  5
369
  8
BEMAŠUNG
  6
CONTINUOUS
 62
     0
 10
-224.0
 20
4281.9687588494398
 30
0.0
 11
-224.0
 21
4482.7027777777766
 31
0.0
  0
LINE
  5
36A
  8
BEMAŠUNG
  6
CONTINUOUS
 62
     0
 10
185.86132812499329
 20
4462.7027777777766
 30
0.0
 11
-209.861328125
 21
4462.7027777777766
 31
0.0
  0
INSERT
  5
36B
  8
BEMAŠUNG
  6
CONTINUOUS
 62
     0
  2
VW_SLASH
 10
199.99999999999329
 20
4462.7027777777766
 30
0.0
 41
14.138671875
 42
14.138671875
 43
14.138671875
  0
INSERT
  5
36C
  8
BEMAŠUNG
  6
CONTINUOUS
 62
     0
  2
VW_SLASH
 10
-224.0
 20
4462.7027777777766
 30
0.0
 41
14.138671875
 42
14.138671875
 43
14.138671875
 50
180.0
  0
TEXT
  8
BEMAŠUNG
  40
35.3696
  5
3B7
  62
0
  72
0
  71
0
 10
-82.7393
 20
4420.36
 30
0.000000
  1
424
  7
ARIAL
  0
POINT
  5
36E
  8
DEFPOINTS
  6
CONTINUOUS
 62
     0
 10
199.99999999999329
 20
4251.9687588494389
 30
0.0
  0
POINT
  5
36F
  8
DEFPOINTS
  6
CONTINUOUS
 62
     0
 10
-224.0
 20
4251.9687588494389
 30
0.0
  0
POINT
  5
370
  8
DEFPOINTS
  6
CONTINUOUS
 62
     0
 10
-224.0
 20
4462.7027777777766
 30
0.0
  0
ENDBLK
  5
4A
  8
0
  0
BLOCK
  8
0
  2
*D4
 70
     1
 10
0.0
 20
0.0
 30
0.0
  3
*D4
  1

  0
LINE
  5
371
  8
BEMAŠUNG
  6
CONTINUOUS
 62
     0
 10
246.1700763596651
 20
3893.8611111111122
 30
0.0
 11
335.52415102177179
 21
3893.8611111111122
 31
0.0
  0
LINE
  5
372
  8
BEMAŠUNG
  6
CONTINUOUS
 62
     0
 10
246.1700763596651
 20
4293.8611111111113
 30
0.0
 11
335.5241510217719
 21
4293.8611111111113
 31
0.0
  0
LINE
  5
373
  8
BEMAŠUNG
  6
CONTINUOUS
 62
     0
 10
315.52415102177179
 20
3907.9997829861122
 30
0.0
 11
315.5241510217719
 21
4279.7224392361104
 31
0.0
  0
INSERT
  5
374
  8
BEMAŠUNG
  6
CONTINUOUS
 62
     0
  2
VW_SLASH
 10
315.52415102177179
 20
3893.8611111111122
 30
0.0
 41
14.138671875
 42
14.138671875
 43
14.138671875
 50
270.0
  0
INSERT
  5
375
  8
BEMAŠUNG
  6
CONTINUOUS
 62
     0
  2
VW_SLASH
 10
315.5241510217719
 20
4293.8611111111113
 30
0.0
 41
14.138671875
 42
14.138671875
 43
14.138671875
 50
90.0
  0
TEXT
  8
BEMAŠUNG
  40
35.3696
  5
3B8
  62
0
  72
0
  71
0
 10
224.226
 20
4031.26
 30
0.000000
  1
400
  7
ARIAL
  0
POINT
  5
377
  8
DEFPOINTS
  6
CONTINUOUS
 62
     0
 10
216.1700763596651
 20
3893.8611111111122
 30
0.0
  0
POINT
  5
378
  8
DEFPOINTS
  6
CONTINUOUS
 62
     0
 10
216.1700763596651
 20
4293.8611111111113
 30
0.0
  0
POINT
  5
379
  8
DEFPOINTS
  6
CONTINUOUS
 62
     0
 10
315.5241510217719
 20
4293.8611111111113
 30
0.0
  0
ENDBLK
  5
4D
  8
0
  0
BLOCK
  8
0
  2
*D5
 70
     1
 10
0.0
 20
0.0
 30
0.0
  3
*D5
  1

  0
LINE
  5
37A
  8
BEMAŠUNG
  6
CONTINUOUS
 62
     0
 10
176.10764773832221
 20
3881.8611111111109
 30
0.0
 11
418.77866724773958
 21
3881.8611111111109
 31
0.0
  0
LINE
  5
37B
  8
BEMAŠUNG
  6
CONTINUOUS
 62
     0
 10
229.99999999999051
 20
4305.8611111111104
 30
0.0
 11
418.77866724773969
 21
4305.8611111111104
 31
0.0
  0
LINE
  5
37C
  8
BEMAŠUNG
  6
CONTINUOUS
 62
     0
 10
398.77866724773958
 20
3895.9997829861109
 30
0.0
 11
398.77866724773969
 21
4291.7224392361104
 31
0.0
  0
INSERT
  5
37D
  8
BEMAŠUNG
  6
CONTINUOUS
 62
     0
  2
VW_SLASH
 10
398.77866724773958
 20
3881.8611111111109
 30
0.0
 41
14.138671875
 42
14.138671875
 43
14.138671875
 50
270.0
  0
INSERT
  5
37E
  8
BEMAŠUNG
  6
CONTINUOUS
 62
     0
  2
VW_SLASH
 10
398.77866724773969
 20
4305.8611111111104
 30
0.0
 41
14.138671875
 42
14.138671875
 43
14.138671875
 50
90.0
  0
TEXT
  8
BEMAŠUNG
  40
35.3696
  5
3B9
  62
0
  72
0
  71
0
 10
307.782
 20
4031.26
 30
0.000000
  1
424
  7
ARIAL
  0
POINT
  5
380
  8
DEFPOINTS
  6
CONTINUOUS
 62
     0
 10
146.10764773832221
 20
3881.8611111111109
 30
0.0
  0
POINT
  5
381
  8
DEFPOINTS
  6
CONTINUOUS
 62
     0
 10
199.99999999999051
 20
4305.8611111111104
 30
0.0
  0
POINT
  5
382
  8
DEFPOINTS
  6
CONTINUOUS
 62
     0
 10
398.77866724773969
 20
4305.8611111111104
 30
0.0
  0
ENDBLK
  5
50
  8
0
  0
BLOCK
  8
0
  2
*D6
 70
     1
 10
0.0
 20
0.0
 30
0.0
  3
*D6
  1

  0
LINE
  5
383
  8
BEMAŠUNG
  6
CONTINUOUS
 62
     0
 10
4.3455335227583873
 20
4226.7358326114809
 30
0.0
 11
8.1883875116261606
 21
4240.3422471138101
 31
0.0
  0
LINE
  5
384
  8
BEMAŠUNG
  6
CONTINUOUS
 62
     0
 10
-28.345533522753609
 20
4110.9863896107418
 30
0.0
 11
-39.960528825047959
 21
4069.8611111111099
 31
0.0
  0
LINE
  5
385
  8
BEMAŠUNG
  6
CONTINUOUS
 62
     0
 10
-39.960528825047959
 20
4069.8611111111099
 30
0.0
 11
-131.2465458277261
 21
4069.8611111111109
 31
0.0
  0
LINE
  5
386
  8
BEMAŠUNG
  6
CONTINUOUS
 62
     0
 10
0.5026795338903867
 20
4213.1294181091544
 30
0.0
 11
-24.502679533885839
 21
4124.5928041130692
 31
0.0
  0
INSERT
  5
387
  8
BEMAŠUNG
  6
CONTINUOUS
 62
     0
  2
VW_EMPTYARROW
 10
0.5026795338903867
 20
4213.1294181091544
 30
0.0
 41
14.138671875
 42
14.138671875
 43
14.138671875
 50
254.2287504636829
  0
INSERT
  5
388
  8
BEMAŠUNG
  6
CONTINUOUS
 62
     0
  2
VW_EMPTYARROW
 10
-24.502679533885839
 20
4124.5928041130692
 30
0.0
 41
14.138671875
 42
14.138671875
 43
14.138671875
 50
74.228750463682914
  0
TEXT
  8
BEMAŠUNG
  40
35.3696
  5
3BA
  62
0
  72
0
  71
0
 10
-157.593
 20
4028.80
 30
0.000000
  1
?92
  7
ARIAL
  0
POINT
  5
38A
  8
DEFPOINTS
  6
CONTINUOUS
 62
     0
 10
-24.502679533885839
 20
4124.5928041130692
 30
0.0
  0
POINT
  5
38B
  8
DEFPOINTS
  6
CONTINUOUS
 62
     0
 10
0.5026795338903867
 20
4213.1294181091544
 30
0.0
  0
ENDBLK
  5
53
  8
0
  0
BLOCK
  8
0
  2
*D7
 70
     1
 10
0.0
 20
0.0
 30
0.0
  3
*D7
  1

  0
LINE
  5
38C
  8
BEMAŠUNG
  6
CONTINUOUS
 62
     0
 10
18.0000000000021
 20
4168.8611111111113
 30
0.0
 11
107.949146308381
 21
4168.8611111111113
 31
0.0
  0
LINE
  5
38D
  8
BEMAŠUNG
  6
CONTINUOUS
 62
     0
 10
77.708165476099225
 20
4293.8611111111113
 30
0.0
 11
107.949146308381
 21
4293.8611111111113
 31
0.0
  0
LINE
  5
38E
  8
BEMAŠUNG
  6
CONTINUOUS
 62
     0
 10
87.949146308381017
 20
4182.9997829861113
 30
0.0
 11
87.949146308381032
 21
4192.3766912923393
 31
0.0
  0
LINE
  5
38F
  8
BEMAŠUNG
  6
CONTINUOUS
 62
     0
 10
87.949146308381046
 20
4279.7224392361104
 30
0.0
 11
87.949146308381046
 21
4267.4587795839352
 31
0.0
  0
TEXT
  8
BEMAŠUNG
  40
35.3696
  5
3BB
  62
0
  72
0
  71
0
 10
17.2099
 20
4167.31
 30
0.000000
  1
125
  7
ARIAL
  0
INSERT
  5
391
  8
BEMAŠUNG
  6
CONTINUOUS
 62
     0
  2
VW_SLASH
 10
87.949146308381017
 20
4168.8611111111113
 30
0.0
 41
14.138671875
 42
14.138671875
 43
14.138671875
 50
270.0
  0
INSERT
  5
392
  8
BEMAŠUNG
  6
CONTINUOUS
 62
     0
  2
VW_SLASH
 10
87.949146308381046
 20
4293.8611111111113
 30
0.0
 41
14.138671875
 42
14.138671875
 43
14.138671875
 50
90.0
  0
POINT
  5
393
  8
DEFPOINTS
  6
CONTINUOUS
 62
     0
 10
-11.9999999999979
 20
4168.8611111111113
 30
0.0
  0
POINT
  5
394
  8
DEFPOINTS
  6
CONTINUOUS
 62
     0
 10
47.708165476099218
 20
4293.8611111111113
 30
0.0
  0
POINT
  5
395
  8
DEFPOINTS
  6
CONTINUOUS
 62
     0
 10
87.949146308381046
 20
4293.8611111111113
 30
0.0
  0
ENDBLK
  5
56
  8
0
  0
BLOCK
  8
0
  2
*D8
 70
     1
 10
0.0
 20
0.0
 30
0.0
  3
*D8
  1

  0
LINE
  5
396
  8
BEMAŠUNG
  6
CONTINUOUS
 62
     0
 10
230.00000000000199
 20
3579.116587525185
 30
0.0
 11
321.00000000000188
 21
3579.116587525185
 31
0.0
  0
LINE
  5
397
  8
BEMAŠUNG
  6
CONTINUOUS
 62
     0
 10
230.00000000000199
 20
3760.116587525185
 30
0.0
 11
321.00000000000199
 21
3760.116587525185
 31
0.0
  0
LINE
  5
398
  8
BEMAŠUNG
  6
CONTINUOUS
 62
     0
 10
301.00000000000188
 20
3593.255259400185
 30
0.0
 11
301.00000000000199
 21
3745.977915650185
 31
0.0
  0
INSERT
  5
399
  8
BEMAŠUNG
  6
CONTINUOUS
 62
     0
  2
VW_SLASH
 10
301.00000000000188
 20
3579.116587525185
 30
0.0
 41
14.138671875
 42
14.138671875
 43
14.138671875
 50
270.0
  0
INSERT
  5
39A
  8
BEMAŠUNG
  6
CONTINUOUS
 62
     0
  2
VW_SLASH
 10
301.00000000000199
 20
3760.116587525185
 30
0.0
 41
14.138671875
 42
14.138671875
 43
14.138671875
 50
90.0
  0
TEXT
  8
BEMAŠUNG
  40
35.3696
  5
3BC
  62
0
  72
0
  71
0
 10
209.702
 20
3607.01
 30
0.000000
  1
181
  7
ARIAL
  0
POINT
  5
39C
  8
DEFPOINTS
  6
CONTINUOUS
 62
     0
 10
200.00000000000199
 20
3579.116587525185
 30
0.0
  0
POINT
  5
39D
  8
DEFPOINTS
  6
CONTINUOUS
 62
     0
 10
200.00000000000199
 20
3760.116587525185
 30
0.0
  0
POINT
  5
39E
  8
DEFPOINTS
  6
CONTINUOUS
 62
     0
 10
301.00000000000199
 20
3760.116587525185
 30
0.0
  0
ENDBLK
  5
59
  8
0
  0
BLOCK
  8
0
  2
*D9
 70
     1
 10
0.0
 20
0.0
 30
0.0
  3
*D9
  1

  0
LINE
  5
39F
  8
BEMAŠUNG
  6
CONTINUOUS
 62
     0
 10
78.200524532483314
 20
3588.9482002469549
 30
0.0
 11
91.495913081973697
 21
3588.9482002469549
 31
0.0
  0
LINE
  5
3A0
  8
BEMAŠUNG
  6
CONTINUOUS
 62
     0
 10
80.062276510095003
 20
3760.116587525185
 30
0.0
 11
91.495913081973754
 21
3760.116587525185
 31
0.0
  0
LINE
  5
3A1
  8
BEMAŠUNG
  6
CONTINUOUS
 62
     0
 10
71.495913081973711
 20
3603.0868721219549
 30
0.0
 11
71.495913081973754
 21
3745.977915650185
 31
0.0
  0
INSERT
  5
3A2
  8
BEMAŠUNG
  6
CONTINUOUS
 62
     0
  2
VW_SLASH
 10
71.495913081973711
 20
3588.9482002469549
 30
0.0
 41
14.138671875
 42
14.138671875
 43
14.138671875
 50
270.0
  0
INSERT
  5
3A3
  8
BEMAŠUNG
  6
CONTINUOUS
 62
     0
  2
VW_SLASH
 10
71.495913081973754
 20
3760.116587525185
 30
0.0
 41
14.138671875
 42
14.138671875
 43
14.138671875
 50
90.0
  0
TEXT
  8
BEMAŠUNG
  40
35.3696
  5
3BD
  62
0
  72
0
  71
0
 10
-19.8022
 20
3611.93
 30
0.000000
  1
170
  7
ARIAL
  0
POINT
  5
3A5
  8
DEFPOINTS
  6
CONTINUOUS
 62
     0
 10
48.200524532483307
 20
3588.9482002469549
 30
0.0
  0
POINT
  5
3A6
  8
DEFPOINTS
  6
CONTINUOUS
 62
     0
 10
50.062276510094989
 20
3760.116587525185
 30
0.0
  0
POINT
  5
3A7
  8
DEFPOINTS
  6
CONTINUOUS
 62
     0
 10
71.495913081973754
 20
3760.116587525185
 30
0.0
  0
ENDBLK
  5
5C
  8
0
  0
BLOCK
  8
0
  2
VW_SLASH
 70
     0
 10
0.0
 20
0.0
 30
0.0
  3
VW_SLASH
  1

  0
LINE
  5
98
  8
0
  6
BYBLOCK
 62
     0
 10
0.0
 20
0.0
 30
0.0
 11
-1.0
 21
0.0
 31
0.0
  0
POLYLINE
  5
99
  8
10_ZEICHNUNG-WERKZEICHNUNG
 62
     0
 66
     1
 10
0.0
 20
0.0
 30
0.0
 70
   128
  0
VERTEX
  5
9A
  8
10_ZEICHNUNG-WERKZEICHNUNG
 62
     0
 10
0.4987813153181721
 20
0.4987813153181719
 30
0.0
  0
VERTEX
  5
9B
  8
10_ZEICHNUNG-WERKZEICHNUNG
 62
     0
 10
-0.4987813153181719
 20
-0.4987813153181721
 30
0.0
  0
SEQEND
  5
9C
  8
10_ZEICHNUNG-WERKZEICHNUNG
 62
     0
  0
ENDBLK
  5
97
  8
0
  0
BLOCK
  8
0
  2
VW_EMPTYARROW
 70
     0
 10
0.0
 20
0.0
 30
0.0
  3
VW_EMPTYARROW
  1

  0
LINE
  5
A0
  8
0
  6
BYBLOCK
 62
     0
 10
0.0
 20
0.0
 30
0.0
 11
-1.0
 21
0.0
 31
0.0
  0
POLYLINE
  5
A1
  8
10_ZEICHNUNG-WERKZEICHNUNG
 62
     0
 66
     1
 10
0.0
 20
0.0
 30
0.0
 70
   128
  0
VERTEX
  5
A2
  8
10_ZEICHNUNG-WERKZEICHNUNG
 62
     0
 10
-0.6976318359375
 20
0.1869298870536946
 30
0.0
  0
VERTEX
  5
A3
  8
10_ZEICHNUNG-WERKZEICHNUNG
 62
     0
 10
0.0
 20
0.0
 30
0.0
  0
VERTEX
  5
A4
  8
10_ZEICHNUNG-WERKZEICHNUNG
 62
     0
 10
-0.6976318359375
 20
-0.1869298870536948
 30
0.0
  0
SEQEND
  5
A5
  8
10_ZEICHNUNG-WERKZEICHNUNG
 62
     0
  0
ENDBLK
  5
9F
  8
0
  0
BLOCK
  8
0
  2
*U12
 70
     1
 10
0.0
 20
0.0
 30
0.0
  3
*U12
  1

  0
TEXT
  5
320
  8
BEMAŠUNG
 62
     0
 10
-52.351797129611761
 20
4388.3670207863752
 30
0.0
 40
35.36964699074074
  1
400
  7
ARIAL
  0
ENDBLK
  5
322
  8
0
  0
BLOCK
  8
0
  2
*U13
 70
     1
 10
0.0
 20
0.0
 30
0.0
  3
*U13
  1

  0
TEXT
  5
324
  8
BEMAŠUNG
 62
     0
 10
-52.339733812089648
 20
4465.2735170717588
 30
0.0
 40
35.36964699074074
  1
424
  7
ARIAL
  0
ENDBLK
  5
326
  8
0
  0
BLOCK
  8
0
  2
*U14
 70
     1
 10
0.0
 20
0.0
 30
0.0
  3
*U14
  1

  0
TEXT
  5
328
  8
BEMAŠUNG
 62
     0
 10
312.35118679018041
 20
4053.5093139814958
 30
0.0
 40
35.36964699074074
  1
400
 50
90.0
  7
ARIAL
  0
ENDBLK
  5
32A
  8
0
  0
BLOCK
  8
0
  2
*U15
 70
     1
 10
0.0
 20
0.0
 30
0.0
  3
*U15
  1

  0
TEXT
  5
32C
  8
BEMAŠUNG
 62
     0
 10
396.20792795375837
 20
4053.5213772990228
 30
0.0
 40
35.36964699074074
  1
424
 50
90.0
  7
ARIAL
  0
ENDBLK
  5
32E
  8
0
  0
BLOCK
  8
0
  2
*U16
 70
     1
 10
0.0
 20
0.0
 30
0.0
  3
*U16
  1

  0
TEXT
  5
330
  8
BEMAŠUNG
 62
     0
 10
-131.2465458277257
 20
4074.4168934308832
 30
0.0
 40
35.36964699074074
  1
\U+2205
  7
ARIAL
  0
TEXT
  5
331
  8
BEMAŠUNG
 62
     0
 10
-92.812816184990425
 20
4074.4168934308832
 30
0.0
 40
35.36964699074074
  1
92
  7
ARIAL
  0
ENDBLK
  5
333
  8
0
  0
BLOCK
  8
0
  2
*U17
 70
     1
 10
0.0
 20
0.0
 30
0.0
  3
*U17
  1

  0
TEXT
  5
335
  8
BEMAŠUNG
 62
     0
 10
105.3323868656629
 20
4186.9964516751579
 30
0.0
 40
35.36964699074074
  1
125
 50
90.0
  7
ARIAL
  0
ENDBLK
  5
337
  8
0
  0
BLOCK
  8
0
  2
*U18
 70
     1
 10
0.0
 20
0.0
 30
0.0
  3
*U18
  1

  0
TEXT
  5
339
  8
BEMAŠUNG
 62
     0
 10
297.82703576841061
 20
3630.2419191153022
 30
0.0
 40
35.36964699074074
  1
181
 50
90.0
  7
ARIAL
  0
ENDBLK
  5
33B
  8
0
  0
BLOCK
  8
0
  2
*U19
 70
     1
 10
0.0
 20
0.0
 30
0.0
  3
*U19
  1

  0
TEXT
  5
33D
  8
BEMAŠUNG
 62
     0
 10
68.322948850382318
 20
3631.8041232035321
 30
0.0
 40
35.36964699074074
  1
170
 50
90.0
  7
ARIAL
  0
ENDBLK
  5
33F
  8
0
  0
BLOCK
  8
0
  2
*U20
 70
     1
 10
0.0
 20
0.0
 30
0.0
  3
*U20
  1

  0
TEXT
  5
35C
  8
BEMAŠUNG
 62
     7
 10
57.211155946556488
 20
3973.5303784100829
 30
0.0
 40
35.36964699074074
  1
R 80
  7
ARIAL
  0
ENDBLK
  5
35E
  8
0
  0
ENDSEC
  0
SECTION
  2
ENTITIES
  0
POLYLINE
  5
1B4
  8
10_ZEICHNUNG-WERKZEICHNUNG
  6
CONTINUOUS
 62
     7
 66
     1
 10
0.0
 20
0.0
 30
0.0
 70
     1
  0
VERTEX
  5
340
  8
10_ZEICHNUNG-WERKZEICHNUNG
  6
CONTINUOUS
 62
     7
 10
-131.99999999999801
 20
4305.8611111111104
 30
0.0
  0
VERTEX
  5
341
  8
10_ZEICHNUNG-WERKZEICHNUNG
  6
CONTINUOUS
 62
     7
 10
108.000000000002
 20
4305.8611111111104
 30
0.0
 42
-0.414213562373105
  0
VERTEX
  5
342
  8
10_ZEICHNUNG-WERKZEICHNUNG
  6
CONTINUOUS
 62
     7
 10
199.99999999999329
 20
4213.8611111111231
 30
0.0
  0
VERTEX
  5
343
  8
10_ZEICHNUNG-WERKZEICHNUNG
  6
CONTINUOUS
 62
     7
 10
200.00000000000091
 20
3973.861111111114
 30
0.0
 42
-0.1989123673796957
  0
VERTEX
  5
344
  8
10_ZEICHNUNG-WERKZEICHNUNG
  6
CONTINUOUS
 62
     7
 10
173.0538238691588
 20
3908.8072872419439
 30
0.0
 42
-0.1989123673796385
  0
VERTEX
  5
345
  8
10_ZEICHNUNG-WERKZEICHNUNG
  6
CONTINUOUS
 62
     7
 10
108.00000000000141
 20
3881.8611111111109
 30
0.0
  0
VERTEX
  5
346
  8
10_ZEICHNUNG-WERKZEICHNUNG
  6
CONTINUOUS
 62
     7
 10
-131.99999999999829
 20
3881.8611111111109
 30
0.0
 42
-0.1989123673796377
  0
VERTEX
  5
347
  8
10_ZEICHNUNG-WERKZEICHNUNG
  6
CONTINUOUS
 62
     7
 10
-197.05382386916051
 20
3908.8072872419489
 30
0.0
 42
-0.1989123673796911
  0
VERTEX
  5
348
  8
10_ZEICHNUNG-WERKZEICHNUNG
  6
CONTINUOUS
 62
     7
 10
-223.99999999999781
 20
3973.861111111104
 30
0.0
  0
VERTEX
  5
349
  8
10_ZEICHNUNG-WERKZEICHNUNG
  6
CONTINUOUS
 62
     7
 10
-223.9999999999979
 20
4213.8611111111104
 30
0.0
 42
-0.1989123673797014
  0
VERTEX
  5
34A
  8
10_ZEICHNUNG-WERKZEICHNUNG
  6
CONTINUOUS
 62
     7
 10
-197.0538238691471
 20
4278.9149349802856
 30
0.0
 42
-0.1989123673796213
  0
VERTEX
  5
34B
  8
10_ZEICHNUNG-WERKZEICHNUNG
  6
CONTINUOUS
 62
     7
 10
-131.99999999999801
 20
4305.8611111111104
 30
0.0
  0
SEQEND
  5
34C
  8
10_ZEICHNUNG-WERKZEICHNUNG
  6
CONTINUOUS
 62
     7
  0
POLYLINE
  5
1B5
  8
10_ZEICHNUNG-WERKZEICHNUNG
  6
CONTINUOUS
 62
     7
 66
     1
 10
0.0
 20
0.0
 30
0.0
 70
     1
  0
VERTEX
  5
34D
  8
10_ZEICHNUNG-WERKZEICHNUNG
  6
CONTINUOUS
 62
     7
 10
-131.99999999999801
 20
4293.8611111111113
 30
0.0
  0
VERTEX
  5
34E
  8
10_ZEICHNUNG-WERKZEICHNUNG
  6
CONTINUOUS
 62
     7
 10
108.00000000000161
 20
4293.8611111111113
 30
0.0
 42
-0.1989123673796391
  0
VERTEX
  5
34F
  8
10_ZEICHNUNG-WERKZEICHNUNG
  6
CONTINUOUS
 62
     7
 10
164.56854249492591
 20
4270.4296536060347
 30
0.0
 42
-0.1989123673796911
  0
VERTEX
  5
350
  8
10_ZEICHNUNG-WERKZEICHNUNG
  6
CONTINUOUS
 62
     7
 10
188.00000000000199
 20
4213.8611111111186
 30
0.0
  0
VERTEX
  5
351
  8
10_ZEICHNUNG-WERKZEICHNUNG
  6
CONTINUOUS
 62
     7
 10
188.00000000000199
 20
3973.8611111111109
 30
0.0
 42
-0.1989123673796997
  0
VERTEX
  5
352
  8
10_ZEICHNUNG-WERKZEICHNUNG
  6
CONTINUOUS
 62
     7
 10
164.56854249491539
 20
3917.292568616178
 30
0.0
 42
-0.1989123673796294
  0
VERTEX
  5
353
  8
10_ZEICHNUNG-WERKZEICHNUNG
  6
CONTINUOUS
 62
     7
 10
108.0000000000077
 20
3893.8611111111109
 30
0.0
  0
VERTEX
  5
354
  8
10_ZEICHNUNG-WERKZEICHNUNG
  6
CONTINUOUS
 62
     7
 10
-131.9999999999977
 20
3893.8611111111109
 30
0.0
 42
-0.1989123673796382
  0
VERTEX
  5
355
  8
10_ZEICHNUNG-WERKZEICHNUNG
  6
CONTINUOUS
 62
     7
 10
-188.56854249492159
 20
3917.292568616188
 30
0.0
 42
-0.1989123673796906
  0
VERTEX
  5
356
  8
10_ZEICHNUNG-WERKZEICHNUNG
  6
CONTINUOUS
 62
     7
 10
-211.9999999999979
 20
3973.8611111111049
 30
0.0
  0
VERTEX
  5
357
  8
10_ZEICHNUNG-WERKZEICHNUNG
  6
CONTINUOUS
 62
     7
 10
-211.9999999999979
 20
4213.8611111111104
 30
0.0
 42
-0.1989123673797014
  0
VERTEX
  5
358
  8
10_ZEICHNUNG-WERKZEICHNUNG
  6
CONTINUOUS
 62
     7
 10
-188.56854249490999
 20
4270.4296536060456
 30
0.0
 42
-0.1989123673796189
  0
VERTEX
  5
359
  8
10_ZEICHNUNG-WERKZEICHNUNG
  6
CONTINUOUS
 62
     7
 10
-131.99999999999801
 20
4293.8611111111113
 30
0.0
  0
SEQEND
  5
35A
  8
10_ZEICHNUNG-WERKZEICHNUNG
  6
CONTINUOUS
 62
     7
  0
CIRCLE
  5
1B6
  8
10_ZEICHNUNG-WERKZEICHNUNG
  6
CONTINUOUS
 62
     7
 10
-11.99999999999795
 20
4168.8611111111113
 30
0.0
 40
46.0
  0
CIRCLE
  5
1B7
  8
10_ZEICHNUNG-WERKZEICHNUNG
  6
CONTINUOUS
 62
     7
 10
-11.99999999999795
 20
4168.8611111111113
 30
0.0
 40
56.0
  0
CIRCLE
  5
1E3
  8
10_ZEICHNUNG-WERKZEICHNUNG
  6
CONTINUOUS
 62
     7
 10
-11.99999999999795
 20
3730.116587525185
 30
0.0
 40
18.0
  0
CIRCLE
  5
1E4
  8
10_ZEICHNUNG-WERKZEICHNUNG
  6
CONTINUOUS
 62
     7
 10
-11.99999999999795
 20
3730.116587525185
 30
0.0
 40
16.0
  0
LINE
  5
1EA
  8
BEMAŠUNG
  6
CONTINUOUS
 62
     7
 10
108.0000000000164
 20
3973.8611111111109
 30
0.0
 11
177.28203230275929
 21
3933.861111111119
 31
0.0
  0
POLYLINE
  5
1EB
  8
BEMAŠUNG
  6
CONTINUOUS
 62
     7
 66
     1
 10
0.0
 20
0.0
 30
0.0
 70
   128
  0
VERTEX
  5
1EC
  8
BEMAŠUNG
  6
CONTINUOUS
 62
     7
 10
169.9619710354246
 20
3941.1811723784531
 30
0.0
  0
VERTEX
  5
1ED
  8
BEMAŠUNG
  6
CONTINUOUS
 62
     7
 10
177.28203230275929
 20
3933.861111111119
 30
0.0
  0
VERTEX
  5
1EE
  8
BEMAŠUNG
  6
CONTINUOUS
 62
     7
 10
167.28264265432179
 20
3936.540439492222
 30
0.0
  0
SEQEND
  5
1EF
  8
BEMAŠUNG
  6
CONTINUOUS
 62
     7
  0
INSERT
  5
1F0
  8
10_ZEICHNUNG-WERKZEICHNUNG
  2
*U20
 10
0.0
 20
0.0
 30
0.0
  0
DIMENSION
  5
1F1
  8
BEMAŠUNG
  6
CONTINUOUS
 62
     7
  2
*D2
 10
-211.9999999999979
 20
4385.1940565547848
 30
0.0
 11
-11.99999999999795
 21
4405.7528428935084
 31
0.0
 70
     0
 13
188.00000000000199
 23
4284.9623000885322
 33
0.0
 14
-211.9999999999979
 24
4284.9623000885322
 34
0.0
1001
ACAD
1000
DSTYLE
1002
{
1070
   287
1070
     5
1070
   147
1040
2.5
1070
   340
1005
5E
1070
   279
1070
     2
1002
}
  0
DIMENSION
  5
1F2
  8
BEMAŠUNG
  6
CONTINUOUS
 62
     7
  2
*D3
 10
-224.0
 20
4462.7027777777766
 30
0.0
 11
-12.00000000000334
 21
4482.9599811783119
 31
0.0
 70
     0
 13
199.99999999999329
 23
4251.9687588494389
 33
0.0
 14
-224.0
 24
4251.9687588494389
 34
0.0
1001
ACAD
1000
DSTYLE
1002
{
1070
   287
1070
     5
1070
   147
1040
2.5
1070
   340
1005
5E
1070
   279
1070
     2
1002
}
  0
DIMENSION
  5
1F3
  8
BEMAŠUNG
  6
CONTINUOUS
 62
     7
  2
*D4
 10
315.5241510217719
 20
4293.8611111111113
 30
0.0
 11
294.96536468304708
 21
4093.8611111111109
 31
0.0
 70
     0
 13
216.1700763596651
 23
3893.8611111111122
 33
0.0
 14
216.1700763596651
 24
4293.8611111111113
 34
0.0
 50
-90.0
1001
ACAD
1000
DSTYLE
1002
{
1070
   287
1070
     5
1070
   147
1040
2.5
1070
   340
1005
5E
1070
   279
1070
     2
1002
}
  0
DIMENSION
  5
1F4
  8
BEMAŠUNG
  6
CONTINUOUS
 62
     7
  2
*D5
 10
398.77866724773969
 20
4305.8611111111104
 30
0.0
 11
378.52146384720328
 21
4093.8611111111099
 31
0.0
 70
     0
 13
146.10764773832221
 23
3881.8611111111109
 33
0.0
 14
199.99999999999051
 24
4305.8611111111104
 34
0.0
 50
-90.0
1001
ACAD
1000
DSTYLE
1002
{
1070
   287
1070
     5
1070
   147
1040
2.5
1070
   340
1005
5E
1070
   279
1070
     2
1002
}
  0
DIMENSION
  5
1F5
  8
BEMAŠUNG
  6
CONTINUOUS
 62
     7
  2
*D6
 10
0.5026795338903867
 20
4213.1294181091544
 30
0.0
 11
-86.853537326386686
 21
4069.8611111111099
 31
0.0
 70
   131
 15
-24.502679533885839
 25
4124.5928041130692
 35
0.0
 40
0.0
1001
ACAD
1000
DSTYLE
1002
{
1070
   147
1040
2.5
1070
   174
1070
     0
1070
     3
1000

1070
    76
1070
     1
1070
    75
1070
     1
1070
    74
1070
     1
1070
    73
1070
     1
1070
   340
1005
5E
1070
     5
1000
VW_EMPTYARROW
1070
   289
1070
     0
1002
}
  0
DIMENSION
  5
1F7
  8
BEMAŠUNG
  6
CONTINUOUS
 62
     7
  2
*D7
 10
87.949146308381046
 20
4293.8611111111113
 30
0.0
 11
87.949146308481033
 21
4229.9177354381372
 31
0.0
 70
   128
 13
-11.9999999999979
 23
4168.8611111111113
 33
0.0
 14
47.708165476099218
 24
4293.8611111111113
 34
0.0
 50
-90.0
1001
ACAD
1000
DSTYLE
1002
{
1070
   287
1070
     5
1070
   147
1040
0.0000000001
1070
   340
1005
5E
1070
   279
1070
     2
1002
}
  0
DIMENSION
  5
1F8
  8
BEMAŠUNG
  6
CONTINUOUS
 62
     7
  2
*D8
 10
301.00000000000199
 20
3760.116587525185
 30
0.0
 11
280.4412136612774
 21
3669.616587525185
 31
0.0
 70
     0
 13
200.00000000000199
 23
3579.116587525185
 33
0.0
 14
200.00000000000199
 24
3760.116587525185
 34
0.0
 50
-90.0
1001
ACAD
1000
DSTYLE
1002
{
1070
   287
1070
     5
1070
   147
1040
2.5
1070
   340
1005
5E
1070
   279
1070
     2
1002
}
  0
DIMENSION
  5
1F9
  8
BEMAŠUNG
  6
CONTINUOUS
 62
     7
  2
*D9
 10
71.495913081973754
 20
3760.116587525185
 30
0.0
 11
50.937126743249088
 21
3674.5323938860702
 31
0.0
 70
     0
  1
170
 13
48.200524532483307
 23
3588.9482002469549
 33
0.0
 14
50.062276510094989
 24
3760.116587525185
 34
0.0
 50
-90.0
1001
ACAD
1000
DSTYLE
1002
{
1070
   287
1070
     5
1070
   147
1040
2.5
1070
   340
1005
5E
1070
   279
1070
     2
1002
}
  0
LINE
  5
22D
  8
10_ZEICHNUNG-WERKZEICHNUNG
  6
CONTINUOUS
 62
     7
 10
-223.9999999999979
 20
3760.116587525185
 30
0.0
 11
-211.9999999999979
 21
3760.116587525185
 31
0.0
  0
LINE
  5
22E
  8
10_ZEICHNUNG-WERKZEICHNUNG
  6
CONTINUOUS
 62
     7
 10
-211.9999999999979
 20
3760.116587525185
 30
0.0
 11
-211.9999999999979
 21
3602.8230044657239
 31
0.0
  0
ARC
  5
22F
  8
10_ZEICHNUNG-WERKZEICHNUNG
  6
CONTINUOUS
 62
     7
 10
-207.93705852469731
 20
3602.823004465723
 30
0.0
 40
4.0629414753006179
 50
179.99999999999361
 51
224.99999999999889
  0
LINE
  5
230
  8
10_ZEICHNUNG-WERKZEICHNUNG
  6
CONTINUOUS
 62
     7
 10
-210.80999199344649
 20
3599.9500709969739
 30
0.0
 11
-209.18818385888741
 21
3598.3282628624152
 31
0.0
  0
ARC
  5
231
  8
10_ZEICHNUNG-WERKZEICHNUNG
  6
CONTINUOUS
 62
     7
 10
-202.39985919611689
 20
3605.116587525185
 30
0.0
 40
9.6001408038810325
 50
224.999999999995
 51
269.99999999999869
  0
POLYLINE
  5
238
  8
10_ZEICHNUNG-WERKZEICHNUNG
  6
CONTINUOUS
 62
     7
 66
     1
 10
0.0
 20
0.0
 30
0.0
 70
   128
  0
VERTEX
  5
239
  8
10_ZEICHNUNG-WERKZEICHNUNG
  6
CONTINUOUS
 62
     7
 10
-67.999999999997954
 20
3588.8771540311791
 30
0.0
  0
VERTEX
  5
23A
  8
10_ZEICHNUNG-WERKZEICHNUNG
  6
CONTINUOUS
 62
     7
 10
-70.10026412011824
 20
3588.911576802981
 30
0.0
  0
VERTEX
  5
23B
  8
10_ZEICHNUNG-WERKZEICHNUNG
  6
CONTINUOUS
 62
     7
 10
-72.200524532479221
 20
3588.9482002469549
 30
0.0
  0
VERTEX
  5
23C
  8
10_ZEICHNUNG-WERKZEICHNUNG
  6
CONTINUOUS
 62
     7
 10
-74.300781007380451
 20
3588.9870243590881
 30
0.0
  0
VERTEX
  5
23D
  8
10_ZEICHNUNG-WERKZEICHNUNG
  6
CONTINUOUS
 62
     7
 10
-76.401033315122277
 20
3589.02804913514
 30
0.0
  0
VERTEX
  5
23E
  8
10_ZEICHNUNG-WERKZEICHNUNG
  6
CONTINUOUS
 62
     7
 10
-78.501281226014427
 20
3589.0712745706219
 30
0.0
  0
VERTEX
  5
23F
  8
10_ZEICHNUNG-WERKZEICHNUNG
  6
CONTINUOUS
 62
     7
 10
-80.601524510357805
 20
3589.1167006608039
 30
0.0
  0
VERTEX
  5
240
  8
10_ZEICHNUNG-WERKZEICHNUNG
  6
CONTINUOUS
 62
     7
 10
-82.701762938453655
 20
3589.164327400722
 30
0.0
  0
VERTEX
  5
241
  8
10_ZEICHNUNG-WERKZEICHNUNG
  6
CONTINUOUS
 62
     7
 10
-84.801996280613764
 20
3589.2141547851629
 30
0.0
  0
VERTEX
  5
242
  8
10_ZEICHNUNG-WERKZEICHNUNG
  6
CONTINUOUS
 62
     7
 10
-86.90222430714033
 20
3589.2661828086798
 30
0.0
  0
VERTEX
  5
243
  8
10_ZEICHNUNG-WERKZEICHNUNG
  6
CONTINUOUS
 62
     7
 10
-89.002446788336599
 20
3589.320411465585
 30
0.0
  0
VERTEX
  5
244
  8
10_ZEICHNUNG-WERKZEICHNUNG
  6
CONTINUOUS
 62
     7
 10
-91.102663494515767
 20
3589.3768407499442
 30
0.0
  0
VERTEX
  5
245
  8
10_ZEICHNUNG-WERKZEICHNUNG
  6
CONTINUOUS
 62
     7
 10
-93.202874195981906
 20
3589.4354706555869
 30
0.0
  0
VERTEX
  5
246
  8
10_ZEICHNUNG-WERKZEICHNUNG
  6
CONTINUOUS
 62
     7
 10
-95.303078663040466
 20
3589.4963011760979
 30
0.0
  0
VERTEX
  5
247
  8
10_ZEICHNUNG-WERKZEICHNUNG
  6
CONTINUOUS
 62
     7
 10
-97.403276666005993
 20
3589.559332304832
 30
0.0
  0
VERTEX
  5
248
  8
10_ZEICHNUNG-WERKZEICHNUNG
  6
CONTINUOUS
 62
     7
 10
-99.503467975185416
 20
3589.6245640348889
 30
0.0
  0
VERTEX
  5
249
  8
10_ZEICHNUNG-WERKZEICHNUNG
  6
CONTINUOUS
 62
     7
 10
-101.6036523608855
 20
3589.691996359134
 30
0.0
  0
VERTEX
  5
24A
  8
10_ZEICHNUNG-WERKZEICHNUNG
  6
CONTINUOUS
 62
     7
 10
-103.70382959342049
 20
3589.761629270201
 30
0.0
  0
VERTEX
  5
24B
  8
10_ZEICHNUNG-WERKZEICHNUNG
  6
CONTINUOUS
 62
     7
 10
-105.8039994431054
 20
3589.833462760464
 30
0.0
  0
VERTEX
  5
24C
  8
10_ZEICHNUNG-WERKZEICHNUNG
  6
CONTINUOUS
 62
     7
 10
-107.9041616802497
 20
3589.9074968220771
 30
0.0
  0
VERTEX
  5
24D
  8
10_ZEICHNUNG-WERKZEICHNUNG
  6
CONTINUOUS
 62
     7
 10
-110.0043160751636
 20
3589.983731446931
 30
0.0
  0
VERTEX
  5
24E
  8
10_ZEICHNUNG-WERKZEICHNUNG
  6
CONTINUOUS
 62
     7
 10
-112.1044623981679
 20
3590.0621666266961
 30
0.0
  0
VERTEX
  5
24F
  8
10_ZEICHNUNG-WERKZEICHNUNG
  6
CONTINUOUS
 62
     7
 10
-114.20460041957411
 20
3590.1428023527978
 30
0.0
  0
VERTEX
  5
250
  8
10_ZEICHNUNG-WERKZEICHNUNG
  6
CONTINUOUS
 62
     7
 10
-116.30472990969569
 20
3590.2256386164099
 30
0.0
  0
VERTEX
  5
251
  8
10_ZEICHNUNG-WERKZEICHNUNG
  6
CONTINUOUS
 62
     7
 10
-118.404850638856
 20
3590.3106754084761
 30
0.0
  0
VERTEX
  5
252
  8
10_ZEICHNUNG-WERKZEICHNUNG
  6
CONTINUOUS
 62
     7
 10
-120.5049623773694
 20
3590.3979127196958
 30
0.0
  0
VERTEX
  5
253
  8
10_ZEICHNUNG-WERKZEICHNUNG
  6
CONTINUOUS
 62
     7
 10
-122.605064895552
 20
3590.4873505405299
 30
0.0
  0
VERTEX
  5
254
  8
10_ZEICHNUNG-WERKZEICHNUNG
  6
CONTINUOUS
 62
     7
 10
-124.7051579637302
 20
3590.5789888611962
 30
0.0
  0
VERTEX
  5
255
  8
10_ZEICHNUNG-WERKZEICHNUNG
  6
CONTINUOUS
 62
     7
 10
-126.8052413522215
 20
3590.6728276716672
 30
0.0
  0
VERTEX
  5
256
  8
10_ZEICHNUNG-WERKZEICHNUNG
  6
CONTINUOUS
 62
     7
 10
-128.90531483134529
 20
3590.7688669616869
 30
0.0
  0
VERTEX
  5
257
  8
10_ZEICHNUNG-WERKZEICHNUNG
  6
CONTINUOUS
 62
     7
 10
-131.00537817143061
 20
3590.867106720752
 30
0.0
  0
VERTEX
  5
258
  8
10_ZEICHNUNG-WERKZEICHNUNG
  6
CONTINUOUS
 62
     7
 10
-133.10543114279861
 20
3590.9675469381132
 30
0.0
  0
VERTEX
  5
259
  8
10_ZEICHNUNG-WERKZEICHNUNG
  6
CONTINUOUS
 62
     7
 10
-135.20547351577159
 20
3591.0701876027888
 30
0.0
  0
VERTEX
  5
25A
  8
10_ZEICHNUNG-WERKZEICHNUNG
  6
CONTINUOUS
 62
     7
 10
-137.30550506067951
 20
3591.1750287035529
 30
0.0
  0
VERTEX
  5
25B
  8
10_ZEICHNUNG-WERKZEICHNUNG
  6
CONTINUOUS
 62
     7
 10
-139.4055255478529
 20
3591.28207022894
 30
0.0
  0
VERTEX
  5
25C
  8
10_ZEICHNUNG-WERKZEICHNUNG
  6
CONTINUOUS
 62
     7
 10
-141.50553474761759
 20
3591.3913121672449
 30
0.0
  0
VERTEX
  5
25D
  8
10_ZEICHNUNG-WERKZEICHNUNG
  6
CONTINUOUS
 62
     7
 10
-143.6055324303008
 20
3591.5027545065168
 30
0.0
  0
VERTEX
  5
25E
  8
10_ZEICHNUNG-WERKZEICHNUNG
  6
CONTINUOUS
 62
     7
 10
-145.70551836624031
 20
3591.6163972345689
 30
0.0
  0
VERTEX
  5
25F
  8
10_ZEICHNUNG-WERKZEICHNUNG
  6
CONTINUOUS
 62
     7
 10
-147.80549232576541
 20
3591.732240338973
 30
0.0
  0
VERTEX
  5
260
  8
10_ZEICHNUNG-WERKZEICHNUNG
  6
CONTINUOUS
 62
     7
 10
-149.90545407920709
 20
3591.8502838070622
 30
0.0
  0
VERTEX
  5
261
  8
10_ZEICHNUNG-WERKZEICHNUNG
  6
CONTINUOUS
 62
     7
 10
-152.00540339690721
 20
3591.970527625921
 30
0.0
  0
VERTEX
  5
262
  8
10_ZEICHNUNG-WERKZEICHNUNG
  6
CONTINUOUS
 62
     7
 10
-154.10534004919899
 20
3592.092971782401
 30
0.0
  0
VERTEX
  5
263
  8
10_ZEICHNUNG-WERKZEICHNUNG
  6
CONTINUOUS
 62
     7
 10
-156.20526380641769
 20
3592.2176162631131
 30
0.0
  0
VERTEX
  5
264
  8
10_ZEICHNUNG-WERKZEICHNUNG
  6
CONTINUOUS
 62
     7
 10
-158.30517443890901
 20
3592.3444610544252
 30
0.0
  0
VERTEX
  5
265
  8
10_ZEICHNUNG-WERKZEICHNUNG
  6
CONTINUOUS
 62
     7
 10
-160.4050717170108
 20
3592.4735061424658
 30
0.0
  0
VERTEX
  5
266
  8
10_ZEICHNUNG-WERKZEICHNUNG
  6
CONTINUOUS
 62
     7
 10
-162.50495541106221
 20
3592.6047515131149
 30
0.0
  0
VERTEX
  5
267
  8
10_ZEICHNUNG-WERKZEICHNUNG
  6
CONTINUOUS
 62
     7
 10
-164.60482529141379
 20
3592.738197152029
 30
0.0
  0
VERTEX
  5
268
  8
10_ZEICHNUNG-WERKZEICHNUNG
  6
CONTINUOUS
 62
     7
 10
-166.70468112840729
 20
3592.8738430446019
 30
0.0
  0
VERTEX
  5
269
  8
10_ZEICHNUNG-WERKZEICHNUNG
  6
CONTINUOUS
 62
     7
 10
-168.80452269238691
 20
3593.0116891760072
 30
0.0
  0
VERTEX
  5
26A
  8
10_ZEICHNUNG-WERKZEICHNUNG
  6
CONTINUOUS
 62
     7
 10
-170.90434975370431
 20
3593.1517355311689
 30
0.0
  0
VERTEX
  5
26B
  8
10_ZEICHNUNG-WERKZEICHNUNG
  6
CONTINUOUS
 62
     7
 10
-173.0041620827125
 20
3593.2939820947699
 30
0.0
  0
VERTEX
  5
26C
  8
10_ZEICHNUNG-WERKZEICHNUNG
  6
CONTINUOUS
 62
     7
 10
-175.10395944976011
 20
3593.4384288512451
 30
0.0
  0
VERTEX
  5
26D
  8
10_ZEICHNUNG-WERKZEICHNUNG
  6
CONTINUOUS
 62
     7
 10
-177.20374162519741
 20
3593.5850757848079
 30
0.0
  0
VERTEX
  5
26E
  8
10_ZEICHNUNG-WERKZEICHNUNG
  6
CONTINUOUS
 62
     7
 10
-179.3035083793857
 20
3593.7339228794181
 30
0.0
  0
VERTEX
  5
26F
  8
10_ZEICHNUNG-WERKZEICHNUNG
  6
CONTINUOUS
 62
     7
 10
-181.40325948267841
 20
3593.8849701187919
 30
0.0
  0
VERTEX
  5
270
  8
10_ZEICHNUNG-WERKZEICHNUNG
  6
CONTINUOUS
 62
     7
 10
-183.50299470543101
 20
3594.0382174864139
 30
0.0
  0
VERTEX
  5
271
  8
10_ZEICHNUNG-WERKZEICHNUNG
  6
CONTINUOUS
 62
     7
 10
-185.60271381800959
 20
3594.1936649655222
 30
0.0
  0
VERTEX
  5
272
  8
10_ZEICHNUNG-WERKZEICHNUNG
  6
CONTINUOUS
 62
     7
 10
-187.70241659077351
 20
3594.351312539115
 30
0.0
  0
VERTEX
  5
273
  8
10_ZEICHNUNG-WERKZEICHNUNG
  6
CONTINUOUS
 62
     7
 10
-189.80210279408271
 20
3594.5111601899512
 30
0.0
  0
VERTEX
  5
274
  8
10_ZEICHNUNG-WERKZEICHNUNG
  6
CONTINUOUS
 62
     7
 10
-191.90177219830909
 20
3594.6732079005578
 30
0.0
  0
VERTEX
  5
275
  8
10_ZEICHNUNG-WERKZEICHNUNG
  6
CONTINUOUS
 62
     7
 10
-194.0014245738171
 20
3594.837455653198
 30
0.0
  0
VERTEX
  5
276
  8
10_ZEICHNUNG-WERKZEICHNUNG
  6
CONTINUOUS
 62
     7
 10
-196.1010596909727
 20
3595.0039034299211
 30
0.0
  0
VERTEX
  5
277
  8
10_ZEICHNUNG-WERKZEICHNUNG
  6
CONTINUOUS
 62
     7
 10
-198.20067732015309
 20
3595.1725512125122
 30
0.0
  0
VERTEX
  5
278
  8
10_ZEICHNUNG-WERKZEICHNUNG
  6
CONTINUOUS
 62
     7
 10
-200.30027723172839
 20
3595.3433989825321
 30
0.0
  0
VERTEX
  5
279
  8
10_ZEICHNUNG-WERKZEICHNUNG
  6
CONTINUOUS
 62
     7
 10
-202.39985919606141
 20
3595.5164467213021
 30
0.0
  0
SEQEND
  5
27A
  8
10_ZEICHNUNG-WERKZEICHNUNG
  6
CONTINUOUS
 62
     7
  0
LINE
  5
27D
  8
10_ZEICHNUNG-WERKZEICHNUNG
  6
CONTINUOUS
 62
     7
 10
-223.9999999999979
 20
3579.116587525185
 30
0.0
 11
-57.999999999997939
 21
3579.116587525185
 31
0.0
  0
LINE
  5
285
  8
10_ZEICHNUNG-WERKZEICHNUNG
  6
CONTINUOUS
 62
     7
 10
200.00000000000199
 20
3760.116587525185
 30
0.0
 11
188.00000000000199
 21
3760.116587525185
 31
0.0
  0
LINE
  5
286
  8
10_ZEICHNUNG-WERKZEICHNUNG
  6
CONTINUOUS
 62
     7
 10
188.00000000000199
 20
3760.116587525185
 30
0.0
 11
188.00000000000199
 21
3602.8230044657239
 31
0.0
  0
ARC
  5
287
  8
10_ZEICHNUNG-WERKZEICHNUNG
  6
CONTINUOUS
 62
     7
 10
183.93705852470151
 20
3602.823004465723
 30
0.0
 40
4.0629414753005051
 50
314.99999999999972
 51
0.0000000000064129
  0
LINE
  5
288
  8
10_ZEICHNUNG-WERKZEICHNUNG
  6
CONTINUOUS
 62
     7
 10
186.80999199345061
 20
3599.9500709969739
 30
0.0
 11
185.18818385889131
 21
3598.3282628624152
 31
0.0
  0
ARC
  5
289
  8
10_ZEICHNUNG-WERKZEICHNUNG
  6
CONTINUOUS
 62
     7
 10
178.3998591961209
 20
3605.116587525185
 30
0.0
 40
9.6001408038809117
 50
270.00000000000028
 51
315.00000000000432
  0
LINE
  5
28C
  8
10_ZEICHNUNG-WERKZEICHNUNG
  6
CONTINUOUS
 62
     7
 10
34.000000000002053
 20
3579.116587525185
 30
0.0
 11
200.00000000000199
 21
3579.116587525185
 31
0.0
  0
POLYLINE
  5
28F
  8
10_ZEICHNUNG-WERKZEICHNUNG
  6
CONTINUOUS
 62
     7
 66
     1
 10
0.0
 20
0.0
 30
0.0
 70
   128
  0
VERTEX
  5
290
  8
10_ZEICHNUNG-WERKZEICHNUNG
  6
CONTINUOUS
 62
     7
 10
44.000000000002053
 20
3588.8771540311791
 30
0.0
  0
VERTEX
  5
291
  8
10_ZEICHNUNG-WERKZEICHNUNG
  6
CONTINUOUS
 62
     7
 10
46.10026412012256
 20
3588.911576802981
 30
0.0
  0
VERTEX
  5
292
  8
10_ZEICHNUNG-WERKZEICHNUNG
  6
CONTINUOUS
 62
     7
 10
48.200524532483307
 20
3588.9482002469549
 30
0.0
  0
VERTEX
  5
293
  8
10_ZEICHNUNG-WERKZEICHNUNG
  6
CONTINUOUS
 62
     7
 10
50.300781007384778
 20
3588.9870243590881
 30
0.0
  0
VERTEX
  5
294
  8
10_ZEICHNUNG-WERKZEICHNUNG
  6
CONTINUOUS
 62
     7
 10
52.401033315126369
 20
3589.02804913514
 30
0.0
  0
VERTEX
  5
295
  8
10_ZEICHNUNG-WERKZEICHNUNG
  6
CONTINUOUS
 62
     7
 10
54.501281226018357
 20
3589.0712745706219
 30
0.0
  0
VERTEX
  5
296
  8
10_ZEICHNUNG-WERKZEICHNUNG
  6
CONTINUOUS
 62
     7
 10
56.601524510362196
 20
3589.1167006608039
 30
0.0
  0
VERTEX
  5
297
  8
10_ZEICHNUNG-WERKZEICHNUNG
  6
CONTINUOUS
 62
     7
 10
58.701762938457691
 20
3589.164327400722
 30
0.0
  0
VERTEX
  5
298
  8
10_ZEICHNUNG-WERKZEICHNUNG
  6
CONTINUOUS
 62
     7
 10
60.801996280617907
 20
3589.2141547851629
 30
0.0
  0
VERTEX
  5
299
  8
10_ZEICHNUNG-WERKZEICHNUNG
  6
CONTINUOUS
 62
     7
 10
62.902224307144479
 20
3589.2661828086798
 30
0.0
  0
VERTEX
  5
29A
  8
10_ZEICHNUNG-WERKZEICHNUNG
  6
CONTINUOUS
 62
     7
 10
65.002446788340634
 20
3589.320411465585
 30
0.0
  0
VERTEX
  5
29B
  8
10_ZEICHNUNG-WERKZEICHNUNG
  6
CONTINUOUS
 62
     7
 10
67.102663494519902
 20
3589.3768407499442
 30
0.0
  0
VERTEX
  5
29C
  8
10_ZEICHNUNG-WERKZEICHNUNG
  6
CONTINUOUS
 62
     7
 10
69.202874195986169
 20
3589.4354706555869
 30
0.0
  0
VERTEX
  5
29D
  8
10_ZEICHNUNG-WERKZEICHNUNG
  6
CONTINUOUS
 62
     7
 10
71.303078663044516
 20
3589.4963011760979
 30
0.0
  0
VERTEX
  5
29E
  8
10_ZEICHNUNG-WERKZEICHNUNG
  6
CONTINUOUS
 62
     7
 10
73.403276666010015
 20
3589.559332304832
 30
0.0
  0
VERTEX
  5
29F
  8
10_ZEICHNUNG-WERKZEICHNUNG
  6
CONTINUOUS
 62
     7
 10
75.503467975189309
 20
3589.6245640348889
 30
0.0
  0
VERTEX
  5
2A0
  8
10_ZEICHNUNG-WERKZEICHNUNG
  6
CONTINUOUS
 62
     7
 10
77.603652360889555
 20
3589.691996359134
 30
0.0
  0
VERTEX
  5
2A1
  8
10_ZEICHNUNG-WERKZEICHNUNG
  6
CONTINUOUS
 62
     7
 10
79.703829593424871
 20
3589.761629270201
 30
0.0
  0
VERTEX
  5
2A2
  8
10_ZEICHNUNG-WERKZEICHNUNG
  6
CONTINUOUS
 62
     7
 10
81.803999443109433
 20
3589.833462760464
 30
0.0
  0
VERTEX
  5
2A3
  8
10_ZEICHNUNG-WERKZEICHNUNG
  6
CONTINUOUS
 62
     7
 10
83.904161680253765
 20
3589.9074968220771
 30
0.0
  0
VERTEX
  5
2A4
  8
10_ZEICHNUNG-WERKZEICHNUNG
  6
CONTINUOUS
 62
     7
 10
86.004316075167935
 20
3589.983731446931
 30
0.0
  0
VERTEX
  5
2A5
  8
10_ZEICHNUNG-WERKZEICHNUNG
  6
CONTINUOUS
 62
     7
 10
88.104462398172004
 20
3590.0621666266961
 30
0.0
  0
VERTEX
  5
2A6
  8
10_ZEICHNUNG-WERKZEICHNUNG
  6
CONTINUOUS
 62
     7
 10
90.204600419578128
 20
3590.1428023527978
 30
0.0
  0
VERTEX
  5
2A7
  8
10_ZEICHNUNG-WERKZEICHNUNG
  6
CONTINUOUS
 62
     7
 10
92.304729909699958
 20
3590.2256386164099
 30
0.0
  0
VERTEX
  5
2A8
  8
10_ZEICHNUNG-WERKZEICHNUNG
  6
CONTINUOUS
 62
     7
 10
94.404850638860125
 20
3590.3106754084761
 30
0.0
  0
VERTEX
  5
2A9
  8
10_ZEICHNUNG-WERKZEICHNUNG
  6
CONTINUOUS
 62
     7
 10
96.504962377373658
 20
3590.3979127196958
 30
0.0
  0
VERTEX
  5
2AA
  8
10_ZEICHNUNG-WERKZEICHNUNG
  6
CONTINUOUS
 62
     7
 10
98.605064895556083
 20
3590.4873505405299
 30
0.0
  0
VERTEX
  5
2AB
  8
10_ZEICHNUNG-WERKZEICHNUNG
  6
CONTINUOUS
 62
     7
 10
100.70515796373429
 20
3590.5789888611962
 30
0.0
  0
VERTEX
  5
2AC
  8
10_ZEICHNUNG-WERKZEICHNUNG
  6
CONTINUOUS
 62
     7
 10
102.80524135222571
 20
3590.6728276716672
 30
0.0
  0
VERTEX
  5
2AD
  8
10_ZEICHNUNG-WERKZEICHNUNG
  6
CONTINUOUS
 62
     7
 10
104.9053148313492
 20
3590.7688669616869
 30
0.0
  0
VERTEX
  5
2AE
  8
10_ZEICHNUNG-WERKZEICHNUNG
  6
CONTINUOUS
 62
     7
 10
107.0053781714348
 20
3590.867106720752
 30
0.0
  0
VERTEX
  5
2AF
  8
10_ZEICHNUNG-WERKZEICHNUNG
  6
CONTINUOUS
 62
     7
 10
109.1054311428027
 20
3590.9675469381132
 30
0.0
  0
VERTEX
  5
2B0
  8
10_ZEICHNUNG-WERKZEICHNUNG
  6
CONTINUOUS
 62
     7
 10
111.20547351577601
 20
3591.0701876027888
 30
0.0
  0
VERTEX
  5
2B1
  8
10_ZEICHNUNG-WERKZEICHNUNG
  6
CONTINUOUS
 62
     7
 10
113.3055050606838
 20
3591.1750287035529
 30
0.0
  0
VERTEX
  5
2B2
  8
10_ZEICHNUNG-WERKZEICHNUNG
  6
CONTINUOUS
 62
     7
 10
115.4055255478572
 20
3591.28207022894
 30
0.0
  0
VERTEX
  5
2B3
  8
10_ZEICHNUNG-WERKZEICHNUNG
  6
CONTINUOUS
 62
     7
 10
117.50553474762179
 20
3591.3913121672449
 30
0.0
  0
VERTEX
  5
2B4
  8
10_ZEICHNUNG-WERKZEICHNUNG
  6
CONTINUOUS
 62
     7
 10
119.60553243030471
 20
3591.5027545065168
 30
0.0
  0
VERTEX
  5
2B5
  8
10_ZEICHNUNG-WERKZEICHNUNG
  6
CONTINUOUS
 62
     7
 10
121.7055183662446
 20
3591.6163972345689
 30
0.0
  0
VERTEX
  5
2B6
  8
10_ZEICHNUNG-WERKZEICHNUNG
  6
CONTINUOUS
 62
     7
 10
123.80549232576981
 20
3591.732240338973
 30
0.0
  0
VERTEX
  5
2B7
  8
10_ZEICHNUNG-WERKZEICHNUNG
  6
CONTINUOUS
 62
     7
 10
125.9054540792113
 20
3591.8502838070622
 30
0.0
  0
VERTEX
  5
2B8
  8
10_ZEICHNUNG-WERKZEICHNUNG
  6
CONTINUOUS
 62
     7
 10
128.00540339691159
 20
3591.970527625921
 30
0.0
  0
VERTEX
  5
2B9
  8
10_ZEICHNUNG-WERKZEICHNUNG
  6
CONTINUOUS
 62
     7
 10
130.10534004920311
 20
3592.092971782401
 30
0.0
  0
VERTEX
  5
2BA
  8
10_ZEICHNUNG-WERKZEICHNUNG
  6
CONTINUOUS
 62
     7
 10
132.2052638064217
 20
3592.2176162631131
 30
0.0
  0
VERTEX
  5
2BB
  8
10_ZEICHNUNG-WERKZEICHNUNG
  6
CONTINUOUS
 62
     7
 10
134.3051744389129
 20
3592.3444610544252
 30
0.0
  0
VERTEX
  5
2BC
  8
10_ZEICHNUNG-WERKZEICHNUNG
  6
CONTINUOUS
 62
     7
 10
136.40507171701469
 20
3592.4735061424658
 30
0.0
  0
VERTEX
  5
2BD
  8
10_ZEICHNUNG-WERKZEICHNUNG
  6
CONTINUOUS
 62
     7
 10
138.5049554110667
 20
3592.6047515131149
 30
0.0
  0
VERTEX
  5
2BE
  8
10_ZEICHNUNG-WERKZEICHNUNG
  6
CONTINUOUS
 62
     7
 10
140.60482529141771
 20
3592.738197152029
 30
0.0
  0
VERTEX
  5
2BF
  8
10_ZEICHNUNG-WERKZEICHNUNG
  6
CONTINUOUS
 62
     7
 10
142.70468112841149
 20
3592.8738430446019
 30
0.0
  0
VERTEX
  5
2C0
  8
10_ZEICHNUNG-WERKZEICHNUNG
  6
CONTINUOUS
 62
     7
 10
144.80452269239109
 20
3593.0116891760072
 30
0.0
  0
VERTEX
  5
2C1
  8
10_ZEICHNUNG-WERKZEICHNUNG
  6
CONTINUOUS
 62
     7
 10
146.9043497537086
 20
3593.1517355311689
 30
0.0
  0
VERTEX
  5
2C2
  8
10_ZEICHNUNG-WERKZEICHNUNG
  6
CONTINUOUS
 62
     7
 10
149.0041620827167
 20
3593.2939820947699
 30
0.0
  0
VERTEX
  5
2C3
  8
10_ZEICHNUNG-WERKZEICHNUNG
  6
CONTINUOUS
 62
     7
 10
151.10395944976429
 20
3593.4384288512451
 30
0.0
  0
VERTEX
  5
2C4
  8
10_ZEICHNUNG-WERKZEICHNUNG
  6
CONTINUOUS
 62
     7
 10
153.2037416252015
 20
3593.5850757848079
 30
0.0
  0
VERTEX
  5
2C5
  8
10_ZEICHNUNG-WERKZEICHNUNG
  6
CONTINUOUS
 62
     7
 10
155.30350837938951
 20
3593.7339228794181
 30
0.0
  0
VERTEX
  5
2C6
  8
10_ZEICHNUNG-WERKZEICHNUNG
  6
CONTINUOUS
 62
     7
 10
157.40325948268261
 20
3593.8849701187919
 30
0.0
  0
VERTEX
  5
2C7
  8
10_ZEICHNUNG-WERKZEICHNUNG
  6
CONTINUOUS
 62
     7
 10
159.5029947054347
 20
3594.0382174864139
 30
0.0
  0
VERTEX
  5
2C8
  8
10_ZEICHNUNG-WERKZEICHNUNG
  6
CONTINUOUS
 62
     7
 10
161.60271381801391
 20
3594.1936649655222
 30
0.0
  0
VERTEX
  5
2C9
  8
10_ZEICHNUNG-WERKZEICHNUNG
  6
CONTINUOUS
 62
     7
 10
163.70241659077749
 20
3594.351312539115
 30
0.0
  0
VERTEX
  5
2CA
  8
10_ZEICHNUNG-WERKZEICHNUNG
  6
CONTINUOUS
 62
     7
 10
165.80210279408669
 20
3594.5111601899512
 30
0.0
  0
VERTEX
  5
2CB
  8
10_ZEICHNUNG-WERKZEICHNUNG
  6
CONTINUOUS
 62
     7
 10
167.90177219831301
 20
3594.6732079005578
 30
0.0
  0
VERTEX
  5
2CC
  8
10_ZEICHNUNG-WERKZEICHNUNG
  6
CONTINUOUS
 62
     7
 10
170.00142457382111
 20
3594.837455653198
 30
0.0
  0
VERTEX
  5
2CD
  8
10_ZEICHNUNG-WERKZEICHNUNG
  6
CONTINUOUS
 62
     7
 10
172.10105969097691
 20
3595.0039034299211
 30
0.0
  0
VERTEX
  5
2CE
  8
10_ZEICHNUNG-WERKZEICHNUNG
  6
CONTINUOUS
 62
     7
 10
174.2006773201573
 20
3595.1725512125122
 30
0.0
  0
VERTEX
  5
2CF
  8
10_ZEICHNUNG-WERKZEICHNUNG
  6
CONTINUOUS
 62
     7
 10
176.30027723173251
 20
3595.3433989825321
 30
0.0
  0
VERTEX
  5
2D0
  8
10_ZEICHNUNG-WERKZEICHNUNG
  6
CONTINUOUS
 62
     7
 10
178.39985919606531
 20
3595.5164467213021
 30
0.0
  0
SEQEND
  5
2D1
  8
10_ZEICHNUNG-WERKZEICHNUNG
  6
CONTINUOUS
 62
     7
  0
LINE
  5
2D2
  8
10_ZEICHNUNG-WERKZEICHNUNG
  6
CONTINUOUS
 62
     7
 10
-57.999999999997939
 20
3579.116587525185
 30
0.0
 11
-226.9999999999979
 21
3579.116587525185
 31
0.0
  0
LINE
  5
2D3
  8
10_ZEICHNUNG-WERKZEICHNUNG
  6
CONTINUOUS
 62
     7
 10
-223.9999999999979
 20
3612.116587525185
 30
0.0
 11
-223.9999999999979
 21
3760.116587525185
 31
0.0
  0
LINE
  5
2D4
  8
10_ZEICHNUNG-WERKZEICHNUNG
  6
CONTINUOUS
 62
     7
 10
-223.9999999999979
 20
3760.116587525185
 30
0.0
 11
200.00000000000199
 21
3760.116587525185
 31
0.0
  0
LINE
  5
2D6
  8
10_ZEICHNUNG-WERKZEICHNUNG
  6
CONTINUOUS
 62
     7
 10
203.00000000000199
 20
3579.116587525185
 30
0.0
 11
34.000000000002053
 21
3579.116587525185
 31
0.0
  0
LINE
  5
2EE
  8
10_ZEICHNUNG-WERKZEICHNUNG
  6
CONTINUOUS
 62
     7
 10
-226.9999999999979
 20
3579.116587525185
 30
0.0
 11
-226.9999999999979
 21
3612.1165875251859
 31
0.0
  0
LINE
  5
2EF
  8
10_ZEICHNUNG-WERKZEICHNUNG
  6
CONTINUOUS
 62
     7
 10
-223.9999999999979
 20
3612.1165875251859
 30
0.0
 11
-226.99999999999781
 21
3612.1165875251859
 31
0.0
  0
LINE
  5
2F0
  8
10_ZEICHNUNG-WERKZEICHNUNG
  6
CONTINUOUS
 62
     7
 10
34.000000000002082
 20
3573.116587525185
 30
0.0
 11
-57.999999999997982
 21
3573.116587525185
 31
0.0
  0
LINE
  5
2F1
  8
10_ZEICHNUNG-WERKZEICHNUNG
  6
CONTINUOUS
 62
     7
 10
-64.340942311276777
 20
3588.8874320717941
 30
0.0
 11
40.354391694665011
 21
3588.8874320717941
 31
0.0
  0
LINE
  5
2F2
  8
10_ZEICHNUNG-WERKZEICHNUNG
  6
CONTINUOUS
 62
     7
 10
39.854391694665011
 20
3583.5993153666068
 30
0.0
 11
-63.840942311276777
 21
3583.5993153666082
 31
0.0
  0
LINE
  5
2F3
  8
10_ZEICHNUNG-WERKZEICHNUNG
  6
CONTINUOUS
 62
     7
 10
-57.999999999997982
 20
3573.1165875251841
 30
0.0
 11
-57.999999999997982
 21
3583.5993153666068
 31
0.0
  0
LINE
  5
2F4
  8
10_ZEICHNUNG-WERKZEICHNUNG
  6
CONTINUOUS
 62
     7
 10
34.000000000002082
 20
3573.116587525185
 30
0.0
 11
34.000000000002082
 21
3583.5993153666082
 31
0.0
  0
LINE
  5
2F5
  8
10_ZEICHNUNG-WERKZEICHNUNG
 10
-64.340942311276777
 20
3588.8874320717941
 30
0.0
 11
-64.340942311276777
 21
3584.0993153666082
 31
0.0
  0
LINE
  5
2F6
  8
10_ZEICHNUNG-WERKZEICHNUNG
 10
40.354391694665011
 20
3588.8874320717941
 30
0.0
 11
40.354391694665011
 21
3584.0993153666082
 31
0.0
  0
LINE
  5
2F7
  8
10_ZEICHNUNG-WERKZEICHNUNG
 10
-64.340942311276777
 20
3584.0993153666082
 30
0.0
 11
-63.840942311276777
 21
3583.5993153666082
 31
0.0
  0
LINE
  5
2F8
  8
10_ZEICHNUNG-WERKZEICHNUNG
 10
39.854391694665011
 20
3583.5993153666068
 30
0.0
 11
40.354391694665011
 21
3584.0993153666082
 31
0.0
  0
LINE
  5
2F9
  8
10_ZEICHNUNG-WERKZEICHNUNG
  6
CONTINUOUS
 62
     7
 10
-57.999999999997918
 20
3579.116587525185
 30
0.0
 11
-82.999999999997925
 21
3579.116587525185
 31
0.0
  0
LINE
  5
2FA
  8
10_ZEICHNUNG-WERKZEICHNUNG
  6
CONTINUOUS
 62
     7
 10
-82.999999999997925
 20
3579.116587525185
 30
0.0
 11
-82.999999999997925
 21
3573.1165875251841
 31
0.0
  0
LINE
  5
2FB
  8
10_ZEICHNUNG-WERKZEICHNUNG
  6
CONTINUOUS
 62
     7
 10
-82.999999999997925
 20
3573.116587525185
 30
0.0
 11
-57.999999999997918
 21
3573.116587525185
 31
0.0
  0
LINE
  5
2FC
  8
10_ZEICHNUNG-WERKZEICHNUNG
  6
CONTINUOUS
 62
     7
 10
34.000000000002082
 20
3579.116587525185
 30
0.0
 11
59.000000000002082
 21
3579.116587525185
 31
0.0
  0
LINE
  5
2FD
  8
10_ZEICHNUNG-WERKZEICHNUNG
  6
CONTINUOUS
 62
     7
 10
59.000000000002082
 20
3579.116587525185
 30
0.0
 11
59.000000000002082
 21
3573.1165875251859
 31
0.0
  0
LINE
  5
2FE
  8
10_ZEICHNUNG-WERKZEICHNUNG
  6
CONTINUOUS
 62
     7
 10
59.000000000002082
 20
3573.116587525185
 30
0.0
 11
34.000000000002082
 21
3573.116587525185
 31
0.0
  0
LINE
  5
2FF
  8
10_ZEICHNUNG-WERKZEICHNUNG
  6
CONTINUOUS
 62
     7
 10
34.000000000002082
 20
3579.116587525185
 30
0.0
 11
59.000000000002011
 21
3579.116587525185
 31
0.0
  0
LINE
  5
300
  8
10_ZEICHNUNG-WERKZEICHNUNG
  6
CONTINUOUS
 62
     7
 10
-57.999999999997918
 20
3579.116587525185
 30
0.0
 11
-82.999999999997925
 21
3579.116587525185
 31
0.0
  0
LINE
  5
302
  8
10_ZEICHNUNG-WERKZEICHNUNG
 10
-67.999999999997954
 20
3588.8771540311791
 30
0.0
 11
-64.347667002968848
 21
3588.8874131826001
 31
0.0
  0
LINE
  5
303
  8
10_ZEICHNUNG-WERKZEICHNUNG
 10
40.354391694665011
 20
3588.8874320717941
 30
0.0
 11
44.000000000002053
 21
3588.8771540311791
 31
0.0
  0
LINE
  5
304
  8
10_ZEICHNUNG-WERKZEICHNUNG
  6
CONTINUOUS
 62
     7
 10
200.0000000000019
 20
3612.1165875251859
 30
0.0
 11
203.00000000000179
 21
3612.1165875251859
 31
0.0
  0
LINE
  5
305
  8
10_ZEICHNUNG-WERKZEICHNUNG
  6
CONTINUOUS
 62
     7
 10
203.00000000000199
 20
3579.116587525185
 30
0.0
 11
203.00000000000199
 21
3612.1165875251859
 31
0.0
  0
LINE
  5
306
  8
10_ZEICHNUNG-WERKZEICHNUNG
  6
CONTINUOUS
 62
     7
 10
200.00000000000199
 20
3612.116587525185
 30
0.0
 11
200.00000000000199
 21
3760.116587525185
 31
0.0
  0
POLYLINE
  5
30F
  8
10_ZEICHNUNG-WERKZEICHNUNG
  6
CONTINUOUS
 62
     7
 66
     1
 10
0.0
 20
0.0
 30
0.0
 70
     1
  0
VERTEX
  5
3AA
  8
10_ZEICHNUNG-WERKZEICHNUNG
  6
CONTINUOUS
 62
     7
 10
-131.9999999999979
 20
4308.8611111111104
 30
0.0
  0
VERTEX
  5
3AB
  8
10_ZEICHNUNG-WERKZEICHNUNG
  6
CONTINUOUS
 62
     7
 10
108.0000000000018
 20
4308.8611111111104
 30
0.0
 42
-0.4142135623731038
  0
VERTEX
  5
3AC
  8
10_ZEICHNUNG-WERKZEICHNUNG
  6
CONTINUOUS
 62
     7
 10
202.9999999999938
 20
4213.8611111111231
 30
0.0
  0
VERTEX
  5
3AD
  8
10_ZEICHNUNG-WERKZEICHNUNG
  6
CONTINUOUS
 62
     7
 10
203.00000000000091
 20
3973.861111111114
 30
0.0
 42
-0.1989123673796959
  0
VERTEX
  5
3AE
  8
10_ZEICHNUNG-WERKZEICHNUNG
  6
CONTINUOUS
 62
     7
 10
175.1751442127181
 20
3906.6859668983848
 30
0.0
 42
-0.1989123673796383
  0
VERTEX
  5
3AF
  8
10_ZEICHNUNG-WERKZEICHNUNG
  6
CONTINUOUS
 62
     7
 10
108.00000000000141
 20
3878.8611111111109
 30
0.0
  0
VERTEX
  5
3B0
  8
10_ZEICHNUNG-WERKZEICHNUNG
  6
CONTINUOUS
 62
     7
 10
-131.99999999999841
 20
3878.8611111111109
 30
0.0
 42
-0.1989123673796378
  0
VERTEX
  5
3B1
  8
10_ZEICHNUNG-WERKZEICHNUNG
  6
CONTINUOUS
 62
     7
 10
-199.17514421272
 20
3906.6859668983898
 30
0.0
 42
-0.1989123673796914
  0
VERTEX
  5
3B2
  8
10_ZEICHNUNG-WERKZEICHNUNG
  6
CONTINUOUS
 62
     7
 10
-226.99999999999781
 20
3973.861111111104
 30
0.0
  0
VERTEX
  5
3B3
  8
10_ZEICHNUNG-WERKZEICHNUNG
  6
CONTINUOUS
 62
     7
 10
-226.9999999999979
 20
4213.8611111111104
 30
0.0
 42
-0.1989123673796985
  0
VERTEX
  5
3B4
  8
10_ZEICHNUNG-WERKZEICHNUNG
  6
CONTINUOUS
 62
     7
 10
-199.1751442127067
 20
4281.0362553238456
 30
0.0
 42
-0.1989123673796203
  0
SEQEND
  5
3B5
  8
10_ZEICHNUNG-WERKZEICHNUNG
  6
CONTINUOUS
 62
     7
  0
VIEWPORT
  5
1FA
 67
     1
  8
0
 10
128.5
 20
97.5
 30
0.0
 40
314.226
 41
222.18000000000001
 68
     1
 69
     1
1001
ACAD
1000
MVIEW
1002
{
1070
    16
1010
0.0
1020
0.0
1030
0.0
1010
0.0
1020
0.0
1030
1.0
1040
0.0
1040
222.18000000000001
1040
128.5
1040
97.5
1040
50.0
1040
0.0
1040
0.0
1070
     0
1070
   100
1070
     1
1070
     3
1070
     0
1070
     0
1070
     0
1070
     0
1040
0.0
1040
0.0
1040
0.0
1040
10.0
1040
10.0
1040
10.0
1040
10.0
1070
     0
1002
{
1002
}
1002
}
  0
ENDSEC
  0
EOF
